↑↓Torrent.by
Поиск
Логин: Регистрация
Пароль: Восстановить пароль
Загрузка...

Стекло / Glass (2019) BDRip 1080p от селезень | HDRezka Studio

Скачать steklo-glass-2019-bdrip-1080p-ot-selezen-hdrezka-studio.torrent
U Магнитная ссылка Размер: 11.46 GB Раздают: 169 Качают: 238 Добавлен: 2019-04-10 19:00:34
Стекло / Glass (2019) BDRip 1080p от селезень | HDRezka Studio

Название: Стекло
Оригинальное название: Glass
Год выхода: 2019
Жанр: Фантастика, триллер, драма, детектив
Режиссер: М. Найт Шьямалан
В ролях: Джеймс МакЭвой, Брюс Уиллис, Сэмюэл Л. Джексон, Сара Полсон, Аня Тейлор-Джой, Спенсер Трит Кларк, Чарлэйн Вудард, Люк Кирби, Адам Дэвид Томпсон, М. Найт Шьямалан, Шеннон Дестини Райан, Диана Сильверс, Нина Уиснер, Серж Диденко, Джейн Парк Смит, Кайли Зион, Расселл Познер, Кимберли С. Фербенкс

О фильме: В поисках встречи с обладающим фантастическими способностями и снова убивающем девушек Зверем Дэвид Данн выходит на след Кевина Крамба. Но решающая схватка не успевает состояться, героев ловят и отправляют в психиатрическую больницу. Там уже содержится хрупкий человек Элайджа Прайс, несколько лет назад устроивший крушение поезда, единственным выжившем в котором оказался Дэвид. Психиатр Элли Стэйпл пытается убедить этих трёх пациентов, что они не обладают сверхспособностями, и всему можно найти рациональное объяснение

Страна: США
Студия: Walt Disney Pictures, Universal Pictures, Blinding Edge Pictures
Продолжительность: 02:09:01
Перевод: Профессиональный многоголосый | HDRezka Studio

Качество: BDRip 1080p
Видео: MPEG-4 AVC, 1920x804, 10.1 Mbit/s, 23.976 fps
Звук:
Аудио #01: 48 kHz, DTS, 5.1, 1510 Kbps | HDRezka Studio | RUS |
Аудио #02: 48 kHz, AC3, 5.1, 640 Kbps | HDRezka Studio | RUS |
Аудио #03: 48 kHz, AC3, 5.1, 640 Kbps | Оригинал |  ENG |
Субтитры: Английские

Релиз:


[+] MI
General
Unique ID                   : 255815783524847289821280114106303442150 (0xC07453E8FACFE80725C0BCF6201EECE6)
Complete name               : D:Video111Glass.2019.MVO.BDRip.1080p.seleZen.mkv
Format                      : Matroska
Format version              : Version 4
File size                   : 11.5 GiB
Duration                    : 2 h 9 min
Overall bit rate            : 12.7 Mb/s
Movie name                  : Glass 2019 fron селезень
Encoded date                : UTC 2019-04-10 07:59:54
Writing application         : mkvmerge v32.0.0 ('Astral Progressions') 64-bit
Writing library             : libebml v1.3.7 + libmatroska v1.5.0

Video
ID                          : 1
Format                      : AVC
Format/Info                 : Advanced Video Codec
Format profile              : High@L4.1
Format settings             : CABAC / 4 Ref Frames
Format settings, CABAC      : Yes
Format settings, ReFrames   : 4 frames
Codec ID                    : V_MPEG4/ISO/AVC
Duration                    : 2 h 9 min
Bit rate                    : 10.1 Mb/s
Width                       : 1 920 pixels
Height                      : 804 pixels
Display aspect ratio        : 2.40:1
Frame rate mode             : Constant
Frame rate                  : 23.976 (24000/1001) FPS
Color space                 : YUV
Chroma subsampling          : 4:2:0
Bit depth                   : 8 bits
Scan type                   : Progressive
Bits/(Pixel*Frame)          : 0.273
Stream size                 : 9.12 GiB (80%)
Title                       : CHD
Writing library             : x264 core 157 r2867+150 7e91e0e t_mod_Custom_2 [8-bit@all X86_64]
Encoding settings           : cabac=1 / ref=4 / deblock=1:-3:-3 / analyse=0x3:0x133 / me=umh / subme=10 / psy=1 / fade_compensate=0.00 / psy_rd=0.95:0.10 / mixed_ref=1 / me_range=48 / chroma_me=1 / trellis=2 / 8x8dct=1 / cqm=0 / deadzone=21,11 / fast_pskip=0 / chroma_qp_offset=-4 / threads=18 / lookahead_threads=3 / sliced_threads=0 / nr=0 / decimate=1 / interlaced=0 / bluray_compat=0 / constrained_intra=0 / fgo=0 / bframes=8 / b_pyramid=2 / b_adapt=2 / b_bias=0 / direct=3 / weightb=1 / open_gop=0 / weightp=2 / keyint=250 / keyint_min=23 / scenecut=40 / intra_refresh=0 / rc_lookahead=60 / rc=crf / mbtree=0 / crf=19.0000 / qcomp=0.70 / qpmin=0:0:0 / qpmax=69:69:69 / qpstep=4 / vbv_maxrate=35000 / vbv_bufsize=35000 / crf_max=0.0 / nal_hrd=none / filler=0 / ip_ratio=1.40 / pb_ratio=1.30 / aq=3:1.00 / aq-sensitivity=10.00 / aq-factor=1.00:1.00:1.00 / aq2=0 / aq3=2:[0.50:0.50]:[0.50:0.50]:[0.50:0.50]:[0.50:0.50] / aq3-sensitivity=10.00 / aq3-factor=[1.00:1.00]:[1.00:1.00]:[1.00:1.00] / aq3-boundary=192:64:24
Language                    : English
Default                     : Yes
Forced                      : No

Audio #1
ID                          : 2
Format                      : DTS
Format/Info                 : Digital Theater Systems
Codec ID                    : A_DTS
Duration                    : 2 h 9 min
Bit rate mode               : Constant
Bit rate                    : 1 509 kb/s
Channel(s)                  : 6 channels
Channel layout              : C L R Ls Rs LFE
Sampling rate               : 48.0 kHz
Frame rate                  : 93.750 FPS (512 SPF)
Bit depth                   : 24 bits
Compression mode            : Lossy
Stream size                 : 1.36 GiB (12%)
Title                       : MVO [HDRezka Studio]
Language                    : Russian
Default                     : Yes
Forced                      : Yes

Audio #2
ID                          : 3
Format                      : AC-3
Format/Info                 : Audio Coding 3
Commercial name             : Dolby Digital
Codec ID                    : A_AC3
Duration                    : 2 h 9 min
Bit rate mode               : Constant
Bit rate                    : 640 kb/s
Channel(s)                  : 6 channels
Channel layout              : L R C LFE Ls Rs
Sampling rate               : 48.0 kHz
Frame rate                  : 31.250 FPS (1536 SPF)
Bit depth                   : 16 bits
Compression mode            : Lossy
Stream size                 : 591 MiB (5%)
Title                       : MVO [HDRezka Studio]
Language                    : Russian
Service kind                : Complete Main
Default                     : No
Forced                      : No

Audio #3
ID                          : 4
Format                      : AC-3
Format/Info                 : Audio Coding 3
Commercial name             : Dolby Digital
Codec ID                    : A_AC3
Duration                    : 2 h 9 min
Bit rate mode               : Constant
Bit rate                    : 448 kb/s
Channel(s)                  : 6 channels
Channel layout              : L R C LFE Ls Rs
Sampling rate               : 48.0 kHz
Frame rate                  : 31.250 FPS (1536 SPF)
Bit depth                   : 16 bits
Compression mode            : Lossy
Stream size                 : 413 MiB (4%)
Title                       : Original
Language                    : English
Service kind                : Complete Main
Default                     : No
Forced                      : No

Text #1
ID                          : 5
Format                      : UTF-8
Codec ID                    : S_TEXT/UTF8
Codec ID/Info               : UTF-8 Plain Text
Duration                    : 2 h 1 min
Bit rate                    : 43 b/s
Count of elements           : 1201
Stream size                 : 38.8 KiB (0%)
Title                       : Full
Language                    : English
Default                     : No
Forced                      : No

Text #2
ID                          : 6
Format                      : UTF-8
Codec ID                    : S_TEXT/UTF8
Codec ID/Info               : UTF-8 Plain Text
Duration                    : 2 h 2 min
Bit rate                    : 52 b/s
Count of elements           : 1565
Stream size                 : 46.8 KiB (0%)
Title                       : SDH
Language                    : English
Default                     : No
Forced                      : No

Menu
00:00:00.000                : :绗?01 绔?
00:04:08.457                : :绗?02 绔?
00:09:36.367                : :绗?03 绔?
00:14:30.078                : :绗?04 绔?
00:19:49.897                : :绗?05 绔?
00:24:41.063                : :绗?06 绔?
00:29:45.826                : :绗?07 绔?
00:35:00.598                : :绗?08 绔?
00:39:07.595                : :绗?09 绔?
00:47:28.220                : :绗?10 绔?
00:57:16.224                : :绗?11 绔?
01:02:55.271                : :绗?12 绔?
01:09:26.829                : :绗?13 绔?
01:14:30.299                : :绗?14 绔?
01:21:43.774                : :绗?15 绔?
01:30:10.530                : :绗?16 绔?
01:38:15.515                : :绗?17 绔?
01:44:08.742                : :绗?18 绔?
01:54:07.215                : :绗?19 绔?
02:03:00.290                : :绗?20 绔?



Скриншоты:
[+] Всего файлов в раздаче - 1:
Glass.2019.MVO.BDRip.1080p.seleZen.mkv11.46 GB

Показать еще раздачи по запросу стекло:
2019-04-20 U Стекло / Glass (2019) BDRip от MegaPeer | iTunes 1.46 GB ↑ 82 ↓ 16
2019-04-20 U Стекло / Glass (2019) BDRip от MegaPeer | iTunes 2.13 GB ↑ 60 ↓ 10
2019-04-18 U Стекло / Glass (2019) BDRip 720p от Scarabey | iTunes 5.30 GB ↑ 43 ↓ 18
2019-04-18 U Стекло / Glass (2019) HDRip от Scarabey | iTunes 1.48 GB ↑ 78 ↓ 17
2019-04-17 U Стекло / Glass (2019) BDRip-AVC от HELLYWOOD | iTunes 1.41 GB ↑ 156 ↓ 93
2019-04-17 U Стекло / Glass (2019) HDRip от Scarabey | iTunes 794.94 MB ↑ 57 ↓ 25
2019-04-16 U Стекло / Glass (2019) BDRip 1080p от qqss44 & MegaPeer | iTunes 7.69 GB ↑ 39 ↓ 131

Отзывы
Зарегистрируйтесь чтобы добавить комментарий.
Обратная связь
Copyleft ©