↑↓Torrent.by
Поиск
Логин: Регистрация
Пароль: Восстановить пароль
Загрузка...

Клаустрофобы / Escape Room (2019) WEB-DL 1080p от селезень | iTunes

Скачать klaustrofoby-escape-room-2019-web-dl-1080p-ot-selezen-itunes.torrent
U Магнитная ссылка Размер: 4.68 GB Раздают: 487 Качают: 149 Добавлен: 2019-04-11 05:35:44
Клаустрофобы / Escape Room (2019) WEB-DL 1080p от селезень | iTunes

Название: Клаустрофобы
Оригинальное название: Escape Room
Год выхода: 2019
Жанр: Триллер
Режиссер: Адам Робител
В ролях: Тейлор Расселл, Логан Миллер, Джей Эллис, Тайлер Лабин, Дебора Энн Уолл, Ник Додани, Йорик ван Вагенинген, Корнелиус Джини мл., Рассел Кроус, Барт Фаш

О фильме: Получив от таинственной организации приглашение сыграть в квест, победитель которого получит солидную сумму, шестеро незнакомых между собой людей решают попытать удачу. Но совсем скоро им становится понятно, что их выбрали для игры не случайно, задания не такие безобидные, и им грозит вполне реальная опасность, а ставка в игре - их собственные жизни.

Страна: ЮАР, США
Студия: Original Film
Продолжительность: 01:39:36
Перевод: Дублированный | iTunes

Качество: WEB-DL 1080p
Видео: MPEG-4 AVC, 1920x800, 5695 Kbit/s, 23.976 fps
Звук:
Аудио #01: 48 kHz, AC3, 5.1, 384 Kbps | iTunes | RUS |
Аудио #02: 48 kHz, E-AC3, 5.1, 640 Kbps | Оригинал |  ENG |
Субтитры: Русские (Forced, full), английские

Релиз:


[+] MI
General
Unique ID                   : 276576991153455113612892304151332095574 (0xD012CA79AC84512FA700C406E2718656)
Complete name               : D:Video111Escape.Room.2019.WEB-DL.1080p.selezen.mkv
Format                      : Matroska
Format version              : Version 4
File size                   : 4.68 GiB
Duration                    : 1 h 39 min
Overall bit rate            : 6 722 kb/s
Movie name                  : Escape Room 2019 from селезень
Encoded date                : UTC 2019-04-10 18:14:06
Writing application         : mkvmerge v32.0.0 ('Astral Progressions') 64-bit
Writing library             : libebml v1.3.7 + libmatroska v1.5.0

Video
ID                          : 1
Format                      : AVC
Format/Info                 : Advanced Video Codec
Format profile              : High@L4
Format settings             : CABAC / 4 Ref Frames
Format settings, CABAC      : Yes
Format settings, ReFrames   : 4 frames
Codec ID                    : V_MPEG4/ISO/AVC
Duration                    : 1 h 39 min
Bit rate mode               : Constant
Bit rate                    : 5 695 kb/s
Nominal bit rate            : 10 000 kb/s
Width                       : 1 920 pixels
Height                      : 800 pixels
Display aspect ratio        : 2.40:1
Frame rate mode             : Constant
Frame rate                  : 23.976 (24000/1001) FPS
Color space                 : YUV
Chroma subsampling          : 4:2:0
Bit depth                   : 8 bits
Scan type                   : Progressive
Bits/(Pixel*Frame)          : 0.155
Stream size                 : 3.96 GiB (85%)
Language                    : English
Default                     : Yes
Forced                      : No
Color range                 : Limited
Color primaries             : BT.709
Transfer characteristics    : BT.709
Matrix coefficients         : BT.709

Audio #1
ID                          : 2
Format                      : AC-3
Format/Info                 : Audio Coding 3
Commercial name             : Dolby Digital
Codec ID                    : A_AC3
Duration                    : 1 h 39 min
Bit rate mode               : Constant
Bit rate                    : 384 kb/s
Channel(s)                  : 6 channels
Channel layout              : L R C LFE Ls Rs
Sampling rate               : 48.0 kHz
Frame rate                  : 31.250 FPS (1536 SPF)
Bit depth                   : 16 bits
Compression mode            : Lossy
Stream size                 : 274 MiB (6%)
Title                       : iTunes
Language                    : Russian
Service kind                : Complete Main
Default                     : Yes
Forced                      : Yes

Audio #2
ID                          : 3
Format                      : E-AC-3
Format/Info                 : Enhanced AC-3
Commercial name             : Dolby Digital Plus
Codec ID                    : A_EAC3
Duration                    : 1 h 39 min
Bit rate mode               : Constant
Bit rate                    : 640 kb/s
Channel(s)                  : 6 channels
Channel layout              : L R C LFE Ls Rs
Sampling rate               : 48.0 kHz
Frame rate                  : 31.250 FPS (1536 SPF)
Compression mode            : Lossy
Stream size                 : 456 MiB (10%)
Title                       : Original
Language                    : English
Service kind                : Complete Main
Default                     : No
Forced                      : No

Text #1
ID                          : 4
Format                      : UTF-8
Codec ID                    : S_TEXT/UTF8
Codec ID/Info               : UTF-8 Plain Text
Duration                    : 1 h 34 min
Bit rate                    : 0 b/s
Count of elements           : 5
Stream size                 : 178 Bytes (0%)
Title                       : Forced
Language                    : Russian
Default                     : Yes
Forced                      : Yes

Text #2
ID                          : 5
Format                      : UTF-8
Codec ID                    : S_TEXT/UTF8
Codec ID/Info               : UTF-8 Plain Text
Duration                    : 1 h 38 min
Bit rate                    : 93 b/s
Count of elements           : 1356
Stream size                 : 67.7 KiB (0%)
Title                       : Full
Language                    : Russian
Default                     : No
Forced                      : No

Text #3
ID                          : 6
Format                      : UTF-8
Codec ID                    : S_TEXT/UTF8
Codec ID/Info               : UTF-8 Plain Text
Duration                    : 1 h 33 min
Bit rate                    : 70 b/s
Count of elements           : 1553
Stream size                 : 48.6 KiB (0%)
Title                       : Full
Language                    : English
Default                     : No
Forced                      : No

Text #4
ID                          : 7
Format                      : UTF-8
Codec ID                    : S_TEXT/UTF8
Codec ID/Info               : UTF-8 Plain Text
Duration                    : 1 h 37 min
Bit rate                    : 72 b/s
Count of elements           : 1764
Stream size                 : 51.7 KiB (0%)
Title                       : SDH
Language                    : English
Default                     : No
Forced                      : No

Menu
00:00:00.000                : en:1
00:04:35.025                : en:2
00:09:24.646                : en:3
00:14:07.762                : en:4
00:19:45.099                : en:5
00:25:54.218                : en:6
00:33:07.942                : en:7
00:37:26.157                : en:8
00:43:04.077                : en:9
00:50:05.164                : en:10
00:53:57.562                : en:11
01:03:14.285                : en:12
01:09:06.887                : en:13
01:16:13.688                : en:14
01:22:47.748                : en:15
01:30:26.873                : en:16



Скриншоты:
[+] Всего файлов в раздаче - 1:
Escape.Room.2019.WEB-DL.1080p.selezen.mkv4.68 GB

Показать еще раздачи по запросу клаустрофобы:
2019-04-21 U Клаустрофобы / Escape Room (2019) BDRip-HEVC 1080p от M@kSIMus | iTunes 5.98 GB ↑ 74 ↓ 26
2019-04-15 U Клаустрофобы / Escape Room (2019) HDRip от Scarabey | iTunes 1.40 GB ↑ 108 ↓ 32
2019-04-15 U Клаустрофобы / Escape Room (2019) BDRip от MegaPeer | iTunes 1.42 GB ↑ 1573 ↓ 91
2019-04-12 U Клаустрофобы / Escape Room (2019) BDRip 720p от селезень | iTunes 4.06 GB ↑ 140 ↓ 82
2019-04-12 U Клаустрофобы / Escape Room (2019) BDRip 1080p от селезень | iTunes 8.04 GB ↑ 220 ↓ 207
2019-04-11 U Клаустрофобы / Escape Room (2019) WEB-DLRip-AVC от ExKinoRay | iTunes 1.75 GB ↑ 327 ↓ 91
2019-04-11 U Клаустрофобы / Escape Room (2019) WEB-DLRip от MegaPeer | iTunes 1.46 GB ↑ 194 ↓ 73

Отзывы
Зарегистрируйтесь чтобы добавить комментарий.
Обратная связь
Copyleft ©