↑↓Torrent.by
Поиск
Логин: Регистрация
Пароль: Восстановить пароль
Загрузка...

Молчание / The Silence (2019) WEB-DL 1080p от селезень | D

Скачать molchanie-the-silence-2019-web-dl-1080p-ot-selezen-d.torrent
U Магнитная ссылка Размер: 2.33 GB Раздают: 272 Качают: 33 Добавлен: 2019-04-11 05:35:49
Молчание / The Silence (2019) WEB-DL 1080p от селезень | D

Название: Молчание
Оригинальное название: The Silence
Год выхода: 2019
Жанр: ужасы
Режиссер: Джон Р. Леонетти
В ролях: Кирнан Шипка, Стэнли Туччи, Миранда Отто, Джон Корбетт, Сара Эбботт, Кейт Корбетт, Кайл Харрисон Брейткопф, Демпси Брайк, Билли Маклеллан, Ханна Гордон

О фильме: Спелеологи вскрыли древнюю пещеру в Молдавии, тем самым выпустив на свободу странных существ, больше всего похожих на летучих мышей. Твари слепы и ориентируются только на звуки, быстро перемещаются на кожистых крыльях и довольно шустро размножаются, поэтому вскоре распространяются по всей планете. И, конечно, они весьма кровожадны.

Страна: Германия
Студия: Constantin Film
Продолжительность: 01:30:53
Перевод: Дублированный | SDI Media

Качество: WEB-DL 1080p
Видео: MPEG-4 AVC, 1920x1080, 2391 Kbit/s, 23.976 fps
Звук:
Аудио #01: 48 kHz, E-AC3, 5.1, 640 Kbps | Дублированный | RUS |
Аудио #02: 48 kHz, E-AC3, 5.1, 640 Kbps | Оригинал |  ENG |
Субтитры: Русские (Forced, full), английские

Релиз:
[+] MI
General
Unique ID                   : 260933446286370869636290014340617837149 (0xC44DF42A3D0CCCE080EF66CD8BDB9A5D)
Complete name               : D:Video111The.Silence.2019.NF.WEB-DL.1080p.seleZen.mkv
Format                      : Matroska
Format version              : Version 4
File size                   : 2.33 GiB
Duration                    : 1 h 30 min
Overall bit rate mode       : Variable
Overall bit rate            : 3 673 kb/s
Movie name                  : The Silence 2019 from селезень
Encoded date                : UTC 2019-04-10 14:38:28
Writing application         : mkvmerge v32.0.0 ('Astral Progressions') 64-bit
Writing library             : libebml v1.3.7 + libmatroska v1.5.0

Video
ID                          : 1
Format                      : AVC
Format/Info                 : Advanced Video Codec
Format profile              : High@L4
Format settings             : CABAC / 4 Ref Frames
Format settings, CABAC      : Yes
Format settings, ReFrames   : 4 frames
Codec ID                    : V_MPEG4/ISO/AVC
Duration                    : 1 h 30 min
Bit rate mode               : Variable
Bit rate                    : 2 391 kb/s
Maximum bit rate            : 20.0 Mb/s
Width                       : 1 920 pixels
Height                      : 1 080 pixels
Display aspect ratio        : 16:9
Frame rate mode             : Constant
Frame rate                  : 23.976 (24000/1001) FPS
Color space                 : YUV
Chroma subsampling          : 4:2:0
Bit depth                   : 8 bits
Scan type                   : Progressive
Bits/(Pixel*Frame)          : 0.048
Stream size                 : 1.52 GiB (65%)
Writing library             : x264 core 148 r2715 7e75228
Encoding settings           : cabac=1 / ref=4 / deblock=1:0:0 / analyse=0x3:0x111 / me=umh / subme=10 / psy=1 / psy_rd=1.00:0.00 / mixed_ref=1 / me_range=120 / chroma_me=1 / trellis=2 / 8x8dct=1 / cqm=0 / deadzone=21,11 / fast_pskip=1 / chroma_qp_offset=-2 / threads=8 / lookahead_threads=2 / sliced_threads=0 / nr=0 / decimate=1 / interlaced=0 / bluray_compat=0 / stitchable=1 / constrained_intra=0 / bframes=16 / b_pyramid=2 / b_adapt=2 / b_bias=0 / direct=3 / weightb=1 / open_gop=0 / weightp=2 / keyint=240 / keyint_min=121 / scenecut=0 / intra_refresh=0 / rc_lookahead=240 / rc=crf / mbtree=1 / crf=16.0 / qcomp=0.50 / qpmin=6 / qpmax=51 / qpstep=4 / vbv_maxrate=20000 / vbv_bufsize=25000 / crf_max=0.0 / nal_hrd=vbr / filler=0 / ip_ratio=1.40 / aq=1:0.80
Language                    : English
Default                     : Yes
Forced                      : No

Audio #1
ID                          : 2
Format                      : E-AC-3
Format/Info                 : Enhanced AC-3
Commercial name             : Dolby Digital Plus
Codec ID                    : A_EAC3
Duration                    : 1 h 30 min
Bit rate mode               : Constant
Bit rate                    : 640 kb/s
Channel(s)                  : 6 channels
Channel layout              : L R C LFE Ls Rs
Sampling rate               : 48.0 kHz
Frame rate                  : 31.250 FPS (1536 SPF)
Compression mode            : Lossy
Stream size                 : 416 MiB (17%)
Title                       : Russian
Language                    : Russian
Service kind                : Complete Main
Default                     : Yes
Forced                      : Yes

Audio #2
ID                          : 3
Format                      : E-AC-3
Format/Info                 : Enhanced AC-3
Commercial name             : Dolby Digital Plus
Codec ID                    : A_EAC3
Duration                    : 1 h 30 min
Bit rate mode               : Constant
Bit rate                    : 640 kb/s
Channel(s)                  : 6 channels
Channel layout              : L R C LFE Ls Rs
Sampling rate               : 48.0 kHz
Frame rate                  : 31.250 FPS (1536 SPF)
Compression mode            : Lossy
Stream size                 : 416 MiB (17%)
Title                       : Original
Language                    : English
Service kind                : Complete Main
Default                     : No
Forced                      : No

Text #1
ID                          : 4
Format                      : UTF-8
Codec ID                    : S_TEXT/UTF8
Codec ID/Info               : UTF-8 Plain Text
Duration                    : 1 h 29 min
Bit rate                    : 5 b/s
Count of elements           : 85
Stream size                 : 3.62 KiB (0%)
Title                       : Forced
Language                    : Russian
Default                     : Yes
Forced                      : Yes

Text #2
ID                          : 5
Format                      : UTF-8
Codec ID                    : S_TEXT/UTF8
Codec ID/Info               : UTF-8 Plain Text
Duration                    : 1 h 29 min
Bit rate                    : 36 b/s
Count of elements           : 608
Stream size                 : 23.9 KiB (0%)
Title                       : Full
Language                    : Russian
Default                     : No
Forced                      : No

Text #3
ID                          : 6
Format                      : UTF-8
Codec ID                    : S_TEXT/UTF8
Codec ID/Info               : UTF-8 Plain Text
Duration                    : 1 h 24 min
Bit rate                    : 39 b/s
Count of elements           : 956
Stream size                 : 24.6 KiB (0%)
Title                       : Full
Language                    : English
Default                     : No
Forced                      : No



Скриншоты:
[+] Всего файлов в раздаче - 1:
The.Silence.2019.NF.WEB-DL.1080p.seleZen.mkv2.33 GB

Показать еще раздачи по запросу молчание:
2019-06-01 U Молчание / Silencio (2018) WEB-DLRip от Portablius | HDRezka Studio 745.11 MB ↑ 53 ↓ 19
2019-05-29 U Молчание / Silencio (2018) WEB-DL 1080p | HDRezka Studio 5.50 GB ↑ 143 ↓ 143
2019-05-25 U Молчание / The Silence (2019) WEB-DLRip-AVC от OlLanDGroup | D 1.46 GB ↑ 90 ↓ 17
2019-04-12 U Молчание / The Silence (2019) WEBRip 720p | D 3.35 GB ↑ 106 ↓ 32
2019-04-10 U Молчание / The Silence (2019) WEB-DLRip от Dalemake | SDI Media 1.46 GB ↑ 525 ↓ 215
2019-04-09 U Молчание доктора Ивенса (1973) TVRip-AVC 1.43 GB ↑ 43 ↓ 9
2018-06-28 U Великое молчание / Il grande silenzio (1968) BDRip от Koenig | P 1К1.45 GB ↑ 45 ↓ 9

Отзывы
Зарегистрируйтесь чтобы добавить комментарий.
Обратная связь
Copyleft ©