↑↓Torrent.by
Поиск
Логин: Регистрация
Пароль: Восстановить пароль
Загрузка...

Из ниоткуда / Out of Blue (2018) WEB-DL 1080p | HDRezka Studio

Скачать iz-niotkuda-out-of-blue-2018-web-dl-1080p-hdrezka-studio.torrent
U Магнитная ссылка Размер: 6.82 GB Раздают: 94 Качают: 24 Добавлен: 2019-04-11 05:36:11
Из ниоткуда / Out of Blue (2018) WEB-DL 1080p | HDRezka Studio

Название: Из ниоткуда
Оригинальное название: Out of Blue
Год выпуска: 2018
Жанр:  Драма, криминал, детектив
Режиссер: Кэрол Морли
В ролях: Мэми Гаммер, Патришия Кларксон, Джеки Уивер, Джеймс Каан, Тоби Джонс, Аарон Твейт, Гэри Граббс, Алишия Окс, Джонатан Мэйджерс, Йолонда Росс

О фильме: В основе сюжета детективная новелла «Ночной Поезд» британского писателя Мартина Эмиса. После выступления на крыше обсерватории Нового Орлеана выдающийся астрофизик и эксперт по черным дырам Дженнифер Роквелл была найдена мертвой. Расследование преступления поручают детективу Хулихан, опытной женщине-полицейскому. Считая, что мотивом для убийства могла послужить зависть со стороны коллег, она начинает проверять ученых-астрофизиков. Однако вскоре осознает, что на первый взгляд простое дело оказывается одним из самых запутанных в ее карьере.

Выпущено: США, Великобритания, BBC Films, BFI Film Fund, Cannon and Morley Productions
Продолжительность: 01:49:25
Перевод: Профессиональный (многоголосый, закадровый) | HDRezka Studio

Файл
Качество: WEB-DL 1080p
Контейнер: MKV
Видео: MPEG-4 AVC, 8086 Кбит/с, 1920x800
Аудио 1: Русский: AC3, 2 ch, 192 Кбит/с - HDRezka Studio
Аудио 2: Английский: Е-AC3, 6 ch, 640 Кбит/с - Original
Субтитры: Английские


[+] MediaInfo
General
Unique ID                                : 41345645618813603781198262124540706747 (0x1F1AE1B6E07AA449E0BC0C70BD9DBFBB)
Complete name                            : G:Out.of.Blue.2018.WEB-DL.1080p.mkv
Format                                   : Matroska
Format version                           : Version 4 / Version 2
File size                                : 6.82 GiB
Duration                                 : 1 h 49 min
Overall bit rate                         : 8 921 kb/s
Encoded date                             : UTC 2019-04-10 09:37:46
Writing application                      : mkvmerge v20.0.0 ('I Am The Sun') 64-bit
Writing library                          : libebml v1.3.5 + libmatroska v1.4.8

Video
ID                                       : 1
Format                                   : AVC
Format/Info                              : Advanced Video Codec
Format profile                           : High@L4
Format settings                          : CABAC / 4 Ref Frames
Format settings, CABAC                   : Yes
Format settings, RefFrames               : 4 frames
Codec ID                                 : V_MPEG4/ISO/AVC
Duration                                 : 1 h 49 min
Bit rate mode                            : Constant
Bit rate                                 : 8 086 kb/s
Nominal bit rate                         : 10 000 kb/s
Width                                    : 1 920 pixels
Height                                   : 800 pixels
Display aspect ratio                     : 2.40:1
Frame rate mode                          : Constant
Frame rate                               : 24.000 FPS
Color space                              : YUV
Chroma subsampling                       : 4:2:0
Bit depth                                : 8 bits
Scan type                                : Progressive
Bits/(Pixel*Frame)                       : 0.219
Stream size                              : 6.18 GiB (91%)
Language                                 : English
Default                                  : Yes
Forced                                   : No
Color range                              : Limited
Color primaries                          : BT.709
Transfer characteristics                 : BT.709
Matrix coefficients                      : BT.709

Audio #1
ID                                       : 2
Format                                   : AC-3
Format/Info                              : Audio Coding 3
Codec ID                                 : A_AC3
Duration                                 : 1 h 49 min
Bit rate mode                            : Constant
Bit rate                                 : 192 kb/s
Channel(s)                               : 2 channels
Channel positions                        : Front: L R
Sampling rate                            : 48.0 kHz
Frame rate                               : 31.250 FPS (1536 SPF)
Bit depth                                : 16 bits
Compression mode                         : Lossy
Stream size                              : 150 MiB (2%)
Title                                    : MVO HDRezka
Language                                 : Russian
Service kind                             : Complete Main
Default                                  : Yes
Forced                                   : No

Audio #2
ID                                       : 3
Format                                   : E-AC-3
Format/Info                              : Enhanced Audio Coding 3
Codec ID                                 : A_EAC3
Duration                                 : 1 h 49 min
Bit rate mode                            : Constant
Bit rate                                 : 640 kb/s
Channel(s)                               : 6 channels
Channel positions                        : Front: L C R, Side: L R, LFE
Sampling rate                            : 48.0 kHz
Frame rate                               : 187.500 FPS (256 SPF)
Compression mode                         : Lossy
Stream size                              : 501 MiB (7%)
Language                                 : English
Service kind                             : Complete Main
Default                                  : No
Forced                                   : No

Text
ID                                       : 4
Format                                   : UTF-8
Codec ID                                 : S_TEXT/UTF8
Codec ID/Info                            : UTF-8 Plain Text
Duration                                 : 1 h 45 min
Bit rate                                 : 44 b/s
Count of elements                        : 1227
Stream size                              : 34.4 KiB (0%)
Language                                 : English
Default                                  : No
Forced                                   : No



Скриншоты:
[+] Всего файлов в раздаче - 1:
Out.of.Blue.2018.WEB-DL.1080p.mkv6.82 GB

Похожие раздачи по запросу - ниоткуда:
2017-12-29 U За гранью жестокости 10: Письмо ниоткуда. Коллекционное издание / Grim Facade 10: The Message. Collector's Edition (2017) PC 730.48 MB ↑ 266 ↓ 24
2017-11-04 U Девушка из ниоткуда / La fille de nulle part (2012) DVDRip | A 1.38 GB ↑ 155 ↓ 32

Отзывы
Зарегистрируйтесь чтобы добавить комментарий.
Обратная связь
Copyleft ©