↑↓Torrent.by
Поиск
Логин: Регистрация
Пароль: Восстановить пароль
Загрузка...

Ради денег или любви / The Revenger: An Unromantic Comedy / For Love or Money (2019) WEB-DL 1080p | HDRezka Studio

Скачать radi-deneg-ili-lyubvi-the-revenger-an-unromantic-comedy-for-love-or-money-2019-web-dl-1080p-hdrezka-studio.torrent
U Магнитная ссылка Размер: 3.44 GB Раздают: 63 Качают: 18 Добавлен: 2019-04-11 05:36:41
Ради денег или любви / The Revenger: An Unromantic Comedy / For Love or Money (2019) WEB-DL 1080p | HDRezka Studio

Название: Ради денег или любви
Оригинальное название: The Revenger: An Unromantic Comedy / For Love or Money
Год выпуска: 2019
Жанр:  Комедия
Режиссер: Марк Мерфи
В ролях: Таня Рейнольдс, Эдвард Спелирс, Саманта Баркс, Рэйчел Херд-Вуд, Анна Чэнселлор, Роберт Казински, Тони Вэй, Айван Кэй, Дэвид Харгривз, Мадалина Беллариу Ион

О фильме: Марк собирается заработать 20 миллионов фунтов стерлингов от коммерческой сделки, которую он держит в секрете от всех, даже от своего лучшего друга Тима. Более того, случайная встреча на похоронах дала ему еще один шанс с любовью всей его жизни Конни. Сказочный роман приобретает неожиданный поворот, когда Марк узнает, что его будущая невеста, имеет корыстные намерения.

Продолжительность: 01:35:28
Выпущено: Великобритания, Goldfinch Studios, Solar Productions
Перевод: Профессиональный (многоголосый, закадровый) | HDRezka Studio

Файл
Качество: WEB-DL 1080p
Контейнер: MKV
Видео: MPEG-4 AVC, 4586 Кбит/с, 1920x802
Аудио 1: Русский: AC3, 2 ch, 192 Кбит/с - HDRezka Studio
Аудио 2: Английский: AC3, 6 ch, 384 Кбит/с - Original
Субтитры: Английские


[+] MediaInfo
General
Unique ID                                : 320621113168640807270998387744587439674 (0xF1356159132DE9308AA0A24B8614DE3A)
Complete name                            : G:For.Love.Or.Money.2019.WEB-DL.1080p.mkv
Format                                   : Matroska
Format version                           : Version 4 / Version 2
File size                                : 3.44 GiB
Duration                                 : 1 h 35 min
Overall bit rate                         : 5 164 kb/s
Encoded date                             : UTC 2019-04-09 19:01:04
Writing application                      : mkvmerge v20.0.0 ('I Am The Sun') 64-bit
Writing library                          : libebml v1.3.5 + libmatroska v1.4.8

Video
ID                                       : 1
Format                                   : AVC
Format/Info                              : Advanced Video Codec
Format profile                           : High@L4
Format settings                          : CABAC / 5 Ref Frames
Format settings, CABAC                   : Yes
Format settings, RefFrames               : 5 frames
Codec ID                                 : V_MPEG4/ISO/AVC
Duration                                 : 1 h 35 min
Bit rate                                 : 4 586 kb/s
Width                                    : 1 920 pixels
Height                                   : 802 pixels
Display aspect ratio                     : 2.40:1
Frame rate mode                          : Constant
Frame rate                               : 23.976 (24000/1001) FPS
Color space                              : YUV
Chroma subsampling                       : 4:2:0
Bit depth                                : 8 bits
Scan type                                : Progressive
Bits/(Pixel*Frame)                       : 0.124
Stream size                              : 3.06 GiB (89%)
Language                                 : English
Default                                  : Yes
Forced                                   : No
Color range                              : Limited
Color primaries                          : BT.709
Transfer characteristics                 : BT.709
Matrix coefficients                      : BT.709

Audio #1
ID                                       : 2
Format                                   : AC-3
Format/Info                              : Audio Coding 3
Codec ID                                 : A_AC3
Duration                                 : 1 h 35 min
Bit rate mode                            : Constant
Bit rate                                 : 192 kb/s
Channel(s)                               : 2 channels
Channel positions                        : Front: L R
Sampling rate                            : 48.0 kHz
Frame rate                               : 31.250 FPS (1536 SPF)
Bit depth                                : 16 bits
Compression mode                         : Lossy
Stream size                              : 131 MiB (4%)
Language                                 : Russian
Service kind                             : Complete Main
Default                                  : Yes
Forced                                   : No

Audio #2
ID                                       : 3
Format                                   : AC-3
Format/Info                              : Audio Coding 3
Codec ID                                 : A_AC3
Duration                                 : 1 h 35 min
Bit rate mode                            : Constant
Bit rate                                 : 384 kb/s
Channel(s)                               : 6 channels
Channel positions                        : Front: L C R, Side: L R, LFE
Sampling rate                            : 48.0 kHz
Frame rate                               : 31.250 FPS (1536 SPF)
Bit depth                                : 16 bits
Compression mode                         : Lossy
Stream size                              : 262 MiB (7%)
Language                                 : English
Service kind                             : Complete Main
Default                                  : No
Forced                                   : No

Text
ID                                       : 4
Format                                   : UTF-8
Codec ID                                 : S_TEXT/UTF8
Codec ID/Info                            : UTF-8 Plain Text
Duration                                 : 1 h 31 min
Bit rate                                 : 101 b/s
Count of elements                        : 1611
Stream size                              : 68.4 KiB (0%)
Language                                 : English
Default                                  : No
Forced                                   : No

Menu
00:00:00.000                             : en:Chapter 1
00:08:56.536                             : en:Chapter 2
00:18:35.114                             : en:Chapter 3
00:27:59.677                             : en:Chapter 4
00:37:27.244                             : en:Chapter 5
00:43:20.597                             : en:Chapter 6
00:54:21.256                             : en:Chapter 7
01:07:03.017                             : en:Chapter 8
01:16:26.579                             : en:Chapter 9
01:30:47.438                             : en:Chapter 10



Скриншоты:
[+] Всего файлов в раздаче - 1:
For.Love.Or.Money.2019.WEB-DL.1080p.mkv3.44 GB

Показать еще раздачи по запросу ради:
2019-04-11 U Ради денег или любви / The Revenger: An Unromantic Comedy / For Love or Money (2019) WEB-DLRip от OlLanDGroup | HDRezka Studio 1.46 GB ↑ 114 ↓ 19
2019-01-08 U Жить ради любви [01-08 из 08] (2018) WEB-DLRip от Files-x 4.62 GB ↑ 41 ↓ 25
2018-04-08 U Секс ради выживания / Survival Island / Three (2005) WEB-DL 1080p | D, P2 10.87 GB ↑ 105 ↓ 70
2018-03-17 U Секс ради выживания / Survival Island / Three (2005) WEB-DLRip 720p от KORSAR | D, P2 6.92 GB ↑ 330 ↓ 139
2017-12-31 U Дыши ради нас / Breathe (2017) HDRip-AVC от Kaztorrents | iTunes 1К1.47 GB ↑ 111 ↓ 30
2017-12-30 U Дыши ради нас / Breathe (2017) BDRip от MegaPeer | iTunes 1.41 GB ↑ 256 ↓ 113
2016-05-01 U Убей ради меня / Kill for Me (2013) WEB-DLRip | P 1.46 GB ↑ 137 ↓ 37

Отзывы
Зарегистрируйтесь чтобы добавить комментарий.
Обратная связь
Copyleft ©