↑↓Torrent.by
Поиск
Логин: Регистрация
Пароль: Восстановить пароль
Загрузка...

Нэнси Дрю и потайная лестница / Nancy Drew and the Hidden Staircase (2019) WEB-DLRip от Portablius | HDRezka Studio

Скачать nensi-dryu-i-potaynaya-lestnica-nancy-drew-and-the-hidden-staircase-2019-web-dlrip-ot-portablius-hdrezka-studio.torrent
U Магнитная ссылка Размер: 744.88 MB Раздают: 62 Качают: 7 Добавлен: 2019-04-11 05:37:09
Нэнси Дрю и потайная лестница / Nancy Drew and the Hidden Staircase (2019) WEB-DLRip от Portablius | HDRezka Studio

Название: Нэнси Дрю и потайная лестница
Оригинальное название: Nancy Drew and the Hidden Staircase
Год выхода: 2019
Жанр: Драма, криминал, детектив, семейный
Режиссер: Кэтт Ши
В ролях: София Лиллис, Сэм Трэммелл, Андреа Андерс, Лаура Уиггинс, Линда Лавин, Джесси Бойд, Джон Бридделл, Дженнифер Райкер, Маккензи Грэхэм, Ивэн Кастелло

О фильме: В центре сюжета — парочка пожилых сестер Тернбулл, живущих в старом особняке Викторианской эпохи. Странные события, происходящие в стенах дома, приводят к тому, что сестер обвиняют в убийстве. Нэнси Дрю берется за дело и спешит разгадать тайну, чтобы спасти героинь от тюрьмы.

Страна: США
Студия: A Very Good Production Inc., Red 56
Продолжительность: 01:28:58
Перевод: Профессиональный (многоголосый, закадровый) | HDRezka Studio
Субтитры: нет

Релиз Без Рекламы!

Файл
Кодек: XviD
Качество: WEB-DLRip
Видео: 688x384 (1.79:1), 23.976 fps, XviD build 73 ~1033 kbps avg, 0.16 bit/pixel
Звук: 48 kHz, MPEG Layer 3, 2 ch, ~128.00 kbps avg


[+] MediaInfo
General
Complete name               : Nancy.Drew.and.the.Hidden.Staircase.2019.WEB-DLRip.Portablius.avi
Format                      : AVI
Format/Info                 : Audio Video Interleave
File size                   : 745 MiB
Duration                    : 1 h 28 min
Overall bit rate            : 1 171 kb/s
Writing application         : VirtualDubMod 1.5.10.3 | www.virtualdub-fr.org || (build 2550/release)
Writing library             : VirtualDubMod build 2550/release

Video
ID                          : 0
Format                      : MPEG-4 Visual
Format profile              : Advanced Simple@L5
Format settings             : BVOP1 / Custom Matrix
Format settings, BVOP       : 1
Format settings, QPel       : No
Format settings, GMC        : No warppoints
Format settings, Matrix     : Custom
Codec ID                    : XVID
Codec ID/Hint               : XviD
Duration                    : 1 h 28 min
Bit rate                    : 1 034 kb/s
Width                       : 688 pixels
Height                      : 384 pixels
Display aspect ratio        : 16:9
Frame rate                  : 23.976 (24000/1001) FPS
Color space                 : YUV
Chroma subsampling          : 4:2:0
Bit depth                   : 8 bits
Scan type                   : Progressive
Compression mode            : Lossy
Bits/(Pixel*Frame)          : 0.163
Stream size                 : 658 MiB (88%)
Writing library             : XviD 73

Audio
ID                          : 1
Format                      : MPEG Audio
Format version              : Version 1
Format profile              : Layer 3
Codec ID                    : 55
Codec ID/Hint               : MP3
Duration                    : 1 h 28 min
Bit rate mode               : Constant
Bit rate                    : 128 kb/s
Channel(s)                  : 2 channels
Sampling rate               : 48.0 kHz
Frame rate                  : 41.667 FPS (1152 SPF)
Compression mode            : Lossy
Stream size                 : 81.4 MiB (11%)
Alignment                   : Aligned on interleaves
Interleave, duration        : 42  ms (1.00 video frame)
Interleave, preload duratio : 504  ms
Writing library             : LAME3.99r
Encoding settings           : -m s -V 4 -q 2 -lowpass 17 -b 128




Скриншоты:
[+] Всего файлов в раздаче - 1:
Nancy.Drew.and.the.Hidden.Staircase.2019.WEB-DLRip.Portablius.avi744.88 MB

Похожие раздачи по запросу - нэнси:
2019-04-10 U Нэнси Дрю и потайная лестница / Nancy Drew and the Hidden Staircase (2019) WEB-DL 1080p от ExKinoRay | HDRezka Studio 3.56 GB ↑ 188 ↓ 47
2017-12-10 U Отмороженная Нэнси - Снять Красные Трусики с Хельги (2017) MP3 75.94 MB ↑ 171 ↓ 19
2013-11-15 U Нэнси Дрю. Проклятие старого замка / Nancy Drew: The Captive Curse (2011) PC | Repack 1.86 GB ↑ 517 ↓ 14
2013-10-27 U Нэнси Дрю.Усыпальница пропавшей королевы / Nancy Drew.Tomb Of The Lost Queen (2013) PC | Repack от Fenixx 4К1.97 GB ↑ 302 ↓ 3

Отзывы
Зарегистрируйтесь чтобы добавить комментарий.
Обратная связь
Copyleft ©