↑↓Torrent.by
Поиск
Логин: Регистрация
Пароль: Восстановить пароль
Загрузка...

Несокрушимый (2018) BDRip-AVC от OlLanDGroup | GER Transfer | Лицензия

Скачать nesokrushimyy-2018-bdrip-avc-ot-ollandgroup-ger-transfer-licenziya.torrent
U Магнитная ссылка Размер: 1.47 GB Раздают: 40 Качают: 4 Добавлен: 2019-04-11 05:38:36
Несокрушимый (2018) BDRip-AVC от OlLanDGroup | GER Transfer | Лицензия

Несокрушимый

Год выпуска: 2018
Страна: Россия
Производство: ПимановФильм
Жанр:  Военный, история, драма, рельные события

Режиссёр: Константин Максимов
В ролях: Андрей Чернышов, Владимир Епифанцев, Олег Фомин, Ольга Погодина, Сергей Горобченко, Николай Добрынин, Василий Седых, Владимир Кочетков, Дмитрий Золотухин, Олег Чудницов

Перевод: Оригинал | [Лицензия]
Субтитры: Русские (форс., на текст в начале и в конце, полные)
Реклама: Отсутствует

Описание: В основе фильма реальная история уникального подвига экипажа танка «КВ-1». Приняв неравный бой, экипаж Семена Коновалова уничтожил 16 танков, 2 бронемашины и 8 автомашин с живой силой противника в районе хутора Нижнемитякин Тарасовского района Ростовской области. Это история не плакатных героев, а разбитных, веселых, очень разных парней, которые просто хотели жить, но в решающую минуту сумели принять единственно верное решение и совершить подвиг достойный легенды.

Качество: BDRip-AVC | BDRemux | Несокрушимый / 2018 / РУ, СТ / GER Transfer / Blu-Ray Remux (1080p)
Продолжительность: 01:29:36

Формат: MKV
Видео кодек: MPEG-4 AVC
Аудио кодек: AC3
Видео: 1024x428 (2.40:1), 24,000 fps, x264 ~1 894 kbps avg, 0.180 bit/pixel
Аудио #1: 48 kHz, AC3 Dolby Digital, 3/2 (L,C,R,l,r) + LFE ch, ~448.00 kbps avg | RUS (Лицензия)

Дата премьеры (мир):
Дата премьеры (РФ): 25 октября 2018, «Двадцатый Век Фокс СНГ»
Цифровой релиз: 14 декабря 2018, «All media»

Релиз: Rip by:


[+] MediaInfo

Общее
Уникальный идентификатор                 : 152437107611638424975713363737796743041 (0x72AE51AB3256DEB080A11A8D2FE10F81)
Полное имя                               : F:OlLanDGroupNesokrushimyi.2018.BDRip(AVC).OlLanDGroup.mkv
Формат                                   : Matroska
Версия формата                           : Version 4 / Version 2
Размер файла                             : 1,47 Гбайт
Продолжительность                        : 1 ч. 29 м.
Общий поток                              : 2344 Кбит/сек
Название фильма                          : Nesokrushimyi.2018   #TorpedoUK#
Дата кодирования                         : UTC 2019-04-08 18:18:31
Программа кодирования                    : mkvmerge v29.0.0 ('Like It Or Not') 64-bit
Библиотека кодирования                   : libebml v1.3.6 + libmatroska v1.4.9
Attachments                              : poster.jpg

Видео
Идентификатор                            : 1
Формат                                   : AVC
Формат/Информация                        : Advanced Video Codec
Профиль формата                          : High@L4.1
Параметр CABAC формата                   : Да
Параметр ReFrames формата                : 10 кадров
Идентификатор кодека                     : V_MPEG4/ISO/AVC
Продолжительность                        : 1 ч. 29 м.
Битрейт                                  : 1894 Кбит/сек
Ширина                                   : 1024 пикселя
Высота                                   : 428 пикселей
Соотношение сторон                       : 2,40:1
Режим частоты кадров                     : Постоянный
Частота кадров                           : 24,000 кадра/сек
Цветовое пространство                    : YUV
Субдискретизация насыщенности            : 4:2:0
Битовая глубина                          : 8 бит
Тип развёртки                            : Прогрессивная
Бит/(Пиксели*Кадры)                      : 0.180
Размер потока                            : 1,19 Гбайт (81%)
Библиотека кодирования                   : x264 core 146 r2538 121396c
Настройки программы                      : cabac=1 / ref=10 / deblock=1:-3:-3 / analyse=0x3:0x113 / me=umh / subme=11 / psy=1 / psy_rd=0.97:0.05 / mixed_ref=1 / me_range=48 / chroma_me=1 / trellis=2 / 8x8dct=1 / cqm=0 / deadzone=21,11 / fast_pskip=1 / chroma_qp_offset=-3 / threads=6 / lookahead_threads=1 / sliced_threads=0 / nr=0 / decimate=1 / interlaced=0 / bluray_compat=0 / constrained_intra=0 / bframes=11 / b_pyramid=2 / b_adapt=2 / b_bias=0 / direct=3 / weightb=1 / open_gop=0 / weightp=2 / keyint=240 / keyint_min=24 / scenecut=40 / intra_refresh=0 / rc_lookahead=40 / rc=2pass / mbtree=0 / bitrate=1894 / ratetol=1.0 / qcomp=0.60 / qpmin=0 / qpmax=69 / qpstep=4 / cplxblur=20.0 / qblur=0.5 / vbv_maxrate=50000 / vbv_bufsize=62500 / nal_hrd=none / filler=0 / ip_ratio=1.40 / pb_ratio=1.30 / aq=1:1.00
Язык                                     : English
Default                                  : Да
Forced                                   : Нет

Аудио
Идентификатор                            : 2
Формат                                   : AC-3
Формат/Информация                        : Audio Coding 3
Расширение режима                        : CM (complete main)
Параметр Endianness формата              : Big
Идентификатор кодека                     : A_AC3
Продолжительность                        : 1 ч. 29 м.
Вид битрейта                             : Постоянный
Битрейт                                  : 448 Кбит/сек
Каналы                                   : 6 каналов
Расположение каналов                     : Front: L C R, Side: L R, LFE
Частота                                  : 48,0 КГц
Частота кадров                           : 31,250 кадров/сек (1536 spf)
Битовая глубина                          : 16 бит
Метод сжатия                             : С потерями
Размер потока                            : 287 Мбайт (19%)
Заголовок                                : License
Язык                                     : Russian
Default                                  : Да
Forced                                   : Нет

Текст #1
Идентификатор                            : 3
Формат                                   : UTF-8
Идентификатор кодека                     : S_TEXT/UTF8
Идентификатор кодека/Информация          : UTF-8 Plain Text
Продолжительность                        : 1 ч. 25 м.
Битрейт                                  : 2 бит/сек
Count of elements                        : 8
Размер потока                            : 1,32 Кбайт (0%)
Заголовок                                : Forced
Язык                                     : Russian
Default                                  : Да
Forced                                   : Нет

Текст #2
Идентификатор                            : 4
Формат                                   : UTF-8
Идентификатор кодека                     : S_TEXT/UTF8
Идентификатор кодека/Информация          : UTF-8 Plain Text
Продолжительность                        : 1 ч. 26 м.
Битрейт                                  : 76 бит/сек
Count of elements                        : 894
Размер потока                            : 48,2 Кбайт (0%)
Заголовок                                : Full
Язык                                     : Russian
Default                                  : Нет
Forced                                   : Нет

Меню
00:00:00.000                             : :Kapitel 01
00:06:55.000                             : :Kapitel 02
00:12:34.833                             : :Kapitel 03
00:18:15.542                             : :Kapitel 04
00:23:11.208                             : :Kapitel 05
00:30:32.542                             : :Kapitel 06
00:37:27.083                             : :Kapitel 07
00:43:47.958                             : :Kapitel 08
00:49:43.625                             : :Kapitel 09
00:57:52.542                             : :Kapitel 10
01:01:58.750                             : :Kapitel 11
01:07:38.625                             : :Kapitel 12
01:12:59.875                             : :Kapitel 13
01:18:22.958                             : :Kapitel 14
01:23:34.625                             : :Kapitel 15
01:25:35.292                             : :Kapitel 16



Скриншоты:
[+] Всего файлов в раздаче - 1:
Nesokrushimyi.2018.BDRip(AVC).OlLanDGroup.mkv1.47 GB

Показать еще раздачи по запросу несокрушимый:
2019-04-11 U Несокрушимый (2018) HDRip от Scarabey | Лицензия 1.44 GB ↑ 476 ↓ 13
2019-04-09 U Несокрушимый (2018) BDRip 1080p | GER Transfer | Лицензия 7.74 GB ↑ 46 ↓ 36
2019-04-08 U Несокрушимый (2018) BDRip от ExKinoRay | Лицензия 1.44 GB ↑ 121 ↓ 26
2019-04-08 U Несокрушимый (2018) BDRip от MegaPeer | GER Transfer | Лицензия 1.46 GB ↑ 1134 ↓ 11
2018-12-18 U Несокрушимый (2018) WEB-DL 720p | iTunes 2.75 GB ↑ 302 ↓ 114
2018-12-18 U Несокрушимый (2018) WEB-DLRip от Scarabey | iTunes 1К1.45 GB ↑ 161 ↓ 74
2018-12-16 U Несокрушимый (2018) WEB-DLRip от Generalfilm | КПК | iTunes 340.76 MB ↑ 93 ↓ 22

Отзывы
Зарегистрируйтесь чтобы добавить комментарий.
Обратная связь
Copyleft ©