↑↓Torrent.by
Поиск
Логин: Регистрация
Пароль: Восстановить пароль
Загрузка...

Штамм химеры / Chimera Strain (2018) WEB-DLRip-AVC от OlLanDGroup | HDRezka Studio

Скачать shtamm-himery-chimera-strain-2018-web-dlrip-avc-ot-ollandgroup-hdrezka-studio.torrent
U Магнитная ссылка Размер: 1.46 GB Раздают: 47 Качают: 30 Добавлен: 2019-04-11 05:38:40
Штамм химеры / Chimera Strain  (2018) WEB-DLRip-AVC от OlLanDGroup | HDRezka Studio

Штамм химеры / Chimera Strain
«Do you want to live forever?»

Год выпуска: 2018
Страна: Индия, ОАЭ, США
Производство: Praxis Media Ventures
Жанр:  Фантастика, триллер, драма

Режиссёр: Морис Хаймс
В ролях: Генри Иэн Кьюсик, Кэтлин Куинлен, Эрика Эрвин, Дженна Харрисон, Каришма Ахлувалиа, Дженнифер Гьюламети, Равив Хаймс, Каавья Джаярам, Лоуренс Сэмпсон

Перевод: Профессиональный многоголосый | [HDRezka Studio]
Субтитры: Английские
Реклама: Отсутствует

Описание: Дети выдающегося ученого Квинта смертельно больны, поэтому мужчина одержим утопической мечтой избавить мир от всех недугов и подарить человеческой расе бессмертие. Когда состояние детей ухудшается, он принимает решение заморозить их, чтобы получить достаточно времени для поиска способа их спасти. Эксперименты Квинта в области генетических мутаций нуждаются в стволовых клетках человека, что вынуждает ученого обратиться за помощью к таинственной миссис Мастерсон. Подозрительная женщина помогает Квинту, однако у нее есть личные мотивы из-за которых исследование выходит из-под контроля...

Качество: WEB-DLRip-AVC | AMZN Version |
Продолжительность: 01:20:06

Формат: MKV
Видео кодек: MPEG-4 AVC
Аудио кодек: AC3
Видео: 1024x384 (2.67:1), 23,976 fps, x264 ~2 158 kbps avg, 0.229 bit/pixel
Аудио #1: 48 kHz, AC3 Dolby Digital, 2 (L,R) ch, ~192.00 kbps avg | RUS (HDRezka Studio)
Аудио #2: 48 kHz, AC3 Dolby Digital, 3/2 (L,C,R,l,r) + LFE ch, ~256.00 kbps avg | ENG

Дата премьеры (мир): 24 февраля 2018
Дата премьеры (РФ):
Цифровой релиз:

Релиз:


[+] MediaInfo

Общее
Уникальный идентификатор                 : 47737865390123753341152716531338049838 (0x23E9FA7B47908BB5E94B1264218FF92E)
Полное имя                               : F:OlLanDGroupChimera.Strain.2018.WEB-DLRip(AVC).OllanDGroup.mkv
Формат                                   : Matroska
Версия формата                           : Version 4 / Version 2
Размер файла                             : 1,46 Гбайт
Продолжительность                        : 1 ч. 20 м.
Общий поток                              : 2604 Кбит/сек
Название фильма                          : Chimera.Strain.2018   #TorpedoUK#
Дата кодирования                         : UTC 2019-04-10 15:37:50
Программа кодирования                    : mkvmerge v29.0.0 ('Like It Or Not') 64-bit
Библиотека кодирования                   : libebml v1.3.6 + libmatroska v1.4.9

Видео
Идентификатор                            : 1
Формат                                   : AVC
Формат/Информация                        : Advanced Video Codec
Профиль формата                          : High@L4.1
Параметр CABAC формата                   : Да
Параметр ReFrames формата                : 10 кадров
Идентификатор кодека                     : V_MPEG4/ISO/AVC
Продолжительность                        : 1 ч. 20 м.
Битрейт                                  : 2158 Кбит/сек
Ширина                                   : 1024 пикселя
Высота                                   : 384 пикселя
Соотношение сторон                       : 2,667
Режим частоты кадров                     : Постоянный
Частота кадров                           : 23,976 (24000/1001) кадра/сек
Цветовое пространство                    : YUV
Субдискретизация насыщенности            : 4:2:0
Битовая глубина                          : 8 бит
Тип развёртки                            : Прогрессивная
Бит/(Пиксели*Кадры)                      : 0.229
Размер потока                            : 1,20 Гбайт (83%)
Библиотека кодирования                   : x264 core 146 r2538 121396c
Настройки программы                      : cabac=1 / ref=10 / deblock=1:-2:-3 / analyse=0x3:0x113 / me=umh / subme=10 / psy=1 / psy_rd=0.95:0.07 / mixed_ref=1 / me_range=48 / chroma_me=1 / trellis=2 / 8x8dct=1 / cqm=0 / deadzone=21,11 / fast_pskip=1 / chroma_qp_offset=-3 / threads=6 / lookahead_threads=1 / sliced_threads=0 / nr=0 / decimate=1 / interlaced=0 / bluray_compat=0 / constrained_intra=0 / bframes=11 / b_pyramid=2 / b_adapt=2 / b_bias=0 / direct=3 / weightb=1 / open_gop=0 / weightp=2 / keyint=240 / keyint_min=23 / scenecut=40 / intra_refresh=0 / rc_lookahead=40 / rc=2pass / mbtree=0 / bitrate=2158 / ratetol=1.0 / qcomp=0.60 / qpmin=0 / qpmax=69 / qpstep=4 / cplxblur=20.0 / qblur=0.5 / vbv_maxrate=50000 / vbv_bufsize=62500 / nal_hrd=none / filler=0 / ip_ratio=1.40 / pb_ratio=1.30 / aq=1:1.00
Default                                  : Да
Forced                                   : Нет

Аудио #1
Идентификатор                            : 2
Формат                                   : AC-3
Формат/Информация                        : Audio Coding 3
Расширение режима                        : CM (complete main)
Параметр Endianness формата              : Big
Идентификатор кодека                     : A_AC3
Продолжительность                        : 1 ч. 20 м.
Вид битрейта                             : Постоянный
Битрейт                                  : 192 Кбит/сек
Каналы                                   : 2 канала
Расположение каналов                     : Front: L R
Частота                                  : 48,0 КГц
Частота кадров                           : 31,250 кадров/сек (1536 spf)
Битовая глубина                          : 16 бит
Метод сжатия                             : С потерями
Размер потока                            : 110 Мбайт (7%)
Заголовок                                : MVO [HDRezka Studio]
Язык                                     : Russian
Default                                  : Да
Forced                                   : Нет

Аудио #2
Идентификатор                            : 3
Формат                                   : AC-3
Формат/Информация                        : Audio Coding 3
Расширение режима                        : CM (complete main)
Параметр Endianness формата              : Big
Идентификатор кодека                     : A_AC3
Продолжительность                        : 1 ч. 20 м.
Вид битрейта                             : Постоянный
Битрейт                                  : 256 Кбит/сек
Каналы                                   : 6 каналов
Расположение каналов                     : Front: L C R, Side: L R, LFE
Частота                                  : 48,0 КГц
Частота кадров                           : 31,250 кадров/сек (1536 spf)
Битовая глубина                          : 16 бит
Метод сжатия                             : С потерями
Размер потока                            : 147 Мбайт (10%)
Заголовок                                : [Original]
Язык                                     : English
Default                                  : Нет
Forced                                   : Нет

Текст
Идентификатор                            : 4
Формат                                   : UTF-8
Идентификатор кодека                     : S_TEXT/UTF8
Идентификатор кодека/Информация          : UTF-8 Plain Text
Продолжительность                        : 1 ч. 15 м.
Битрейт                                  : 38 бит/сек
Count of elements                        : 612
Размер потока                            : 21,5 Кбайт (0%)
Заголовок                                : Full
Язык                                     : English
Default                                  : Нет
Forced                                   : Нет



Скриншоты:
[+] Всего файлов в раздаче - 1:
Chimera.Strain.2018.WEB-DLRip(AVC).OllanDGroup.mkv1.46 GB

Показать еще раздачи по запросу штамм:
2019-04-10 U Штамм химеры / Chimera Strain (2018) WEB-DL 1080p | HDRezka Studio 5.16 GB ↑ 240 ↓ 175
2017-09-20 U Штамм / The Strain [S04] (2017) WEB-DLRip | LostFilm 5.54 GB ↑ 116 ↓ 124
2017-09-19 U Штамм / The Strain [S04] (2017) WEB-DLRip | Newstudio 5.59 GB ↑ 26 ↓ 64
2017-09-18 U Штамм / The Strain [S4] (2017) HDTVRip 720p | Sunshine Studio 8.38 GB ↑ 126 ↓ 772
2017-09-12 U Штамм / The Strain [04х01-09 из 10] (2017) HDTVRip 720p | Sunshine Studio 7.52 GB ↑ 30 ↓ 245
2017-08-29 U Штамм / The Strain [04x01-07 из 10] (2017) WEB-DLRip | LostFilm 3.82 GB ↑ 154 ↓ 101
2017-08-29 U Штамм / The Strain / Сезон 4 / Серии 1-7 (10) [2017, WEB-DL 720p] MVO (AlexFilm) 9.89 GB ↑ 9 ↓ 36

Отзывы
Зарегистрируйтесь чтобы добавить комментарий.
Обратная связь
Copyleft ©