↑↓Torrent.by
Поиск
Логин: Регистрация
Пароль: Восстановить пароль
Загрузка...

Офисный беспредел / Office Uprising (2018) BDRemux 1080p от селезень | iTunes

Скачать ofisnyy-bespredel-office-uprising-2018-bdremux-1080p-ot-selezen-itunes.torrent
U Магнитная ссылка Размер: 15.06 GB Раздают: 46 Качают: 13 Добавлен: 2019-04-11 05:38:49
Офисный беспредел / Office Uprising (2018) BDRemux 1080p от селезень | iTunes

Название: Офисный беспредел
Оригинальное название: Office Uprising
Год выхода: 2018
Жанр: Ужасы, боевик, комедия
Режиссер: Лин Одинг
В ролях: Брентон Туэйтс, Джейн Леви, Каран Сони, Закари Ливай, Грегг Генри, Курт Фуллер, Йен Хардинг, Сэм Дэйли, Алан Ричсон, Кори Уинстон

О фильме: Глава крупной корпорации, мечтая о нечеловеческой работоспособности своих менеджеров, напоил их секретным энергетическим напитком. Однако босс не ожидал побочного эффекта - подчиненные стали гиперагрессивными. И лишь один раздолбай, как обычно опоздав на работу, остался без порции энергетика. Теперь ему предстоит пережить настоящий офисный беспредел...

Страна: США
Студия: Mind the GAP Productions, Lydiard Films, Rumble Riot Pictures
Продолжительность: 01:28:31
Перевод: Дублированный | iTunes

Качество: BDRemux 1080p
Видео: MPEG-4 AVC, 1920x1080, 21.9 Mbit/s, 24 fps
Звук:
Аудио #01: 48 kHz, AC3, 5.1, 384 Kbps | Дублированный | RUS |
Аудио #02: 48 kHz, AC3, 2.0, 160 Kbps | Дублированный | UKR |
Аудио #03: 48 kHz, DTS-HD MA, 5.1, 1950 Kbps | Оригинал |  ENG |
Субтитры: Английские

Релиз:


[+] MI
General
Unique ID                   : 226051138177746937720237209531607067660 (0xAA0FDD97D381CFE40493454A9FA6AC0C)
Complete name               : D:Video111Office.Uprising.2018.BDREMUX.1080p.seleZen.mkv
Format                      : Matroska
Format version              : Version 4
File size                   : 15.1 GiB
Duration                    : 1 h 28 min
Overall bit rate mode       : Variable
Overall bit rate            : 24.4 Mb/s
Movie name                  : Office Uprising 2018 fron селезень
Encoded date                : UTC 2019-04-10 15:19:48
Writing application         : mkvmerge v32.0.0 ('Astral Progressions') 64-bit
Writing library             : libebml v1.3.7 + libmatroska v1.5.0

Video
ID                          : 1
Format                      : AVC
Format/Info                 : Advanced Video Codec
Format profile              : High@L4.1
Format settings             : CABAC / 4 Ref Frames
Format settings, CABAC      : Yes
Format settings, ReFrames   : 4 frames
Codec ID                    : V_MPEG4/ISO/AVC
Duration                    : 1 h 28 min
Bit rate mode               : Variable
Bit rate                    : 21.9 Mb/s
Maximum bit rate            : 36.0 Mb/s
Width                       : 1 920 pixels
Height                      : 1 080 pixels
Display aspect ratio        : 16:9
Frame rate mode             : Constant
Frame rate                  : 24.000 FPS
Color space                 : YUV
Chroma subsampling          : 4:2:0
Bit depth                   : 8 bits
Scan type                   : Progressive
Bits/(Pixel*Frame)          : 0.439
Stream size                 : 13.5 GiB (90%)
Language                    : English
Default                     : Yes
Forced                      : No

Audio #1
ID                          : 2
Format                      : AC-3
Format/Info                 : Audio Coding 3
Commercial name             : Dolby Digital
Codec ID                    : A_AC3
Duration                    : 1 h 28 min
Bit rate mode               : Constant
Bit rate                    : 384 kb/s
Channel(s)                  : 6 channels
Channel layout              : L R C LFE Ls Rs
Sampling rate               : 48.0 kHz
Frame rate                  : 31.250 FPS (1536 SPF)
Bit depth                   : 16 bits
Compression mode            : Lossy
Stream size                 : 243 MiB (2%)
Title                       : iTunes
Language                    : Russian
Service kind                : Complete Main
Default                     : Yes
Forced                      : Yes

Audio #2
ID                          : 3
Format                      : AC-3
Format/Info                 : Audio Coding 3
Commercial name             : Dolby Digital
Codec ID                    : A_AC3
Duration                    : 1 h 28 min
Bit rate mode               : Constant
Bit rate                    : 160 kb/s
Channel(s)                  : 2 channels
Channel layout              : L R
Sampling rate               : 48.0 kHz
Frame rate                  : 31.250 FPS (1536 SPF)
Bit depth                   : 16 bits
Compression mode            : Lossy
Stream size                 : 101 MiB (1%)
Language                    : Ukrainian
Service kind                : Complete Main
Default                     : No
Forced                      : No

Audio #3
ID                          : 4
Format                      : DTS XLL
Format/Info                 : Digital Theater Systems
Commercial name             : DTS-HD Master Audio
Codec ID                    : A_DTS
Duration                    : 1 h 28 min
Bit rate mode               : Variable
Bit rate                    : 1 950 kb/s
Channel(s)                  : 6 channels
Channel layout              : C L R Ls Rs LFE
Sampling rate               : 48.0 kHz
Frame rate                  : 93.750 FPS (512 SPF)
Bit depth                   : 16 bits
Compression mode            : Lossless
Stream size                 : 1.21 GiB (8%)
Title                       : Original
Language                    : English
Default                     : No
Forced                      : No

Text
ID                          : 5
Format                      : UTF-8
Codec ID                    : S_TEXT/UTF8
Codec ID/Info               : UTF-8 Plain Text
Duration                    : 1 h 23 min
Bit rate                    : 69 b/s
Count of elements           : 1442
Stream size                 : 42.7 KiB (0%)
Language                    : English
Default                     : No
Forced                      : No

Menu
00:00:00.000                : en:Глава 01
00:05:35.625                : en:Глава 02
00:16:59.500                : en:Глава 03
00:28:50.833                : en:Глава 04
00:34:43.292                : en:Глава 05
00:43:08.250                : en:Глава 06
00:52:45.917                : en:Глава 07
00:57:36.250                : en:Глава 08
01:04:58.542                : en:Глава 09
01:10:16.750                : en:Глава 10
01:17:20.250                : en:Глава 11
01:24:00.833                : en:Глава 12



Скриншоты:
[+] Всего файлов в раздаче - 1:
Office.Uprising.2018.BDREMUX.1080p.seleZen.mkv15.06 GB

Похожие раздачи по запросу - офисный:
2019-04-11 U Офисный беспредел / Office Uprising (2018) BDRip от MegaPeer | iTunes 1.42 GB ↑ 80 ↓ 17
2018-09-07 U Офисный беспредел / Office Uprising (2018) WEB-DLRip-AVC от OlLanDGroup | iTunes 1.67 GB ↑ 78 ↓ 32
2018-09-06 U Офисный беспредел / Office Uprising (2018) WEB-DLRip-AVC от ivanes20031987 | iTunes 1К746.10 MB ↑ 160 ↓ 21
2018-09-06 U Офисный беспредел / Office Uprising (2018) WEB-DLRip от MegaPeer | iTunes 1.46 GB ↑ 208 ↓ 23
2018-09-05 U Офисный беспредел / Office Uprising (2018) WEB-DLRip | iTunes 1.46 GB ↑ 346 ↓ 147
2018-09-05 U Офисный беспредел / Office Uprising (2018) WEB-DL 1080p | iTunes 3.27 GB ↑ 200 ↓ 162

Отзывы
Зарегистрируйтесь чтобы добавить комментарий.
Обратная связь
Copyleft ©