↑↓Torrent.by
Поиск
Логин: Регистрация
Пароль: Восстановить пароль
Загрузка...

Лазарат / Lazarat (2019) WEB-DL 1080p от ExKinoRay | HDRezka Studio

Скачать lazarat-2019-web-dl-1080p-ot-exkinoray-hdrezka-studio.torrent
U Магнитная ссылка Размер: 3.67 GB Раздают: 661 Качают: 320 Добавлен: 2019-04-11 19:18:53
Лазарат / Lazarat (2019) WEB-DL 1080p от ExKinoRay | HDRezka Studio

Название: Лазарат
Оригинальное название: Lazarat (The Brave)
Год выпуска: 2019
Жанр:  Боевик, триллер, криминал
Режиссер: Уильям Кауфман
В ролях: Арманд Ассанте, Луис Мэндилор, Игорь Жижикин, Равшана Куркова, Менсур Сафкиу, Радослав Парванов, Гоша Куценко, Сонни Пузикас, Иса Заруи, Иван Макаревич

Описание:   Действие триллера, основанного на реальных событиях, разворачивается в самом сердце Албании. Перед зрителем предстает мир, полный наркотиков, преступности, обмана, позора и опасности, скрывающихся на каждом углу.В центре сюжета — история реального противостояния местных жителей и полиции, которая пыталась ограничить бурную деятельность селян, связанную с производству наркотиков.

Выпущено: США, Mercury Films
Продолжительность: 01:43:09
Перевод: Профессиональный (многоголосый, закадровый) | HDRezka Studio

БЕЗ КАКОЙ-ЛИБО РЕКЛАМЫ!

Формат: MKV
Качество: WEB-DL 1080p
Видео: MPEG-4 AVC, 1920x804 (2.40:1), 23.976 fps, 4409 Kbps, 0.119 bit/pixel
Аудио 1: 48 kHz, AC3, 2.0, 192 Kbps | MVO | RUS |
Аудио 2: 48 kHz, AC3, 5.1, 384 Kbps | Оригинал |  ENG |

Релиз:

Автор релиза:


[+] ОтчетМедиаИнфо
General
Unique ID                                : 246187310985461377025316042352024580345 (0xB935F38FF778A93FA37A746385CB70F9)
Complete name                            : F:Lazarat.2019.MVO.1080p.WEB-DL.ExKinoRay.mkv
Format                                   : Matroska
Format version                           : Version 2
File size                                : 3.67 GiB
Duration                                 : 1 h 43 min
Overall bit rate                         : 5 086 kb/s
Movie name                               : Lazarat 2019 from ExKinoRay
Encoded date                             : UTC 2019-04-11 04:40:18
Writing application                      : mkvmerge v5.6.0 ('Kenya Kane') built on May 27 2012 16:44:04
Writing library                          : libebml v1.2.3 + libmatroska v1.3.0

Video
ID                                       : 1
Format                                   : AVC
Format/Info                              : Advanced Video Codec
Format profile                           : High@L4
Format settings, CABAC                   : Yes
Format settings, ReFrames                : 5 frames
Codec ID                                 : V_MPEG4/ISO/AVC
Duration                                 : 1 h 43 min
Bit rate                                 : 4 409 kb/s
Width                                    : 1 920 pixels
Height                                   : 804 pixels
Display aspect ratio                     : 2.40:1
Frame rate mode                          : Constant
Frame rate                               : 23.976 (24000/1001) FPS
Color space                              : YUV
Chroma subsampling                       : 4:2:0
Bit depth                                : 8 bits
Scan type                                : Progressive
Bits/(Pixel*Frame)                       : 0.119
Stream size                              : 3.18 GiB (87%)
Title                                    : Lazarat 2019
Language                                 : English
Default                                  : Yes
Forced                                   : No
Color range                              : Limited
Color primaries                          : BT.709
Transfer characteristics                 : BT.709
Matrix coefficients                      : BT.709

Audio #1
ID                                       : 2
Format                                   : AC-3
Format/Info                              : Audio Coding 3
Mode extension                           : CM (complete main)
Format settings, Endianness              : Big
Codec ID                                 : A_AC3
Duration                                 : 1 h 43 min
Bit rate mode                            : Constant
Bit rate                                 : 192 kb/s
Channel(s)                               : 2 channels
Channel positions                        : Front: L R
Sampling rate                            : 48.0 kHz
Frame rate                               : 31.250 FPS (1536 spf)
Compression mode                         : Lossy
Delay relative to video                  : -42 ms
Stream size                              : 142 MiB (4%)
Title                                    : MVO (HDRezka Studio)
Language                                 : Russian
Default                                  : Yes
Forced                                   : No

Audio #2
ID                                       : 3
Format                                   : AC-3
Format/Info                              : Audio Coding 3
Mode extension                           : CM (complete main)
Format settings, Endianness              : Big
Codec ID                                 : A_AC3
Duration                                 : 1 h 43 min
Bit rate mode                            : Constant
Bit rate                                 : 384 kb/s
Channel(s)                               : 6 channels
Channel positions                        : Front: L C R, Side: L R, LFE
Sampling rate                            : 48.0 kHz
Frame rate                               : 31.250 FPS (1536 spf)
Compression mode                         : Lossy
Delay relative to video                  : -42 ms
Stream size                              : 283 MiB (8%)
Language                                 : English
Default                                  : No
Forced                                   : No




Скриншоты:
[+] Всего файлов в раздаче - 1:
Lazarat.2019.MVO.1080p.WEB-DL.ExKinoRay.mkv3.67 GB

Похожие раздачи по запросу - лазарат:
2019-04-12 U Лазарат / Lazarat (2019) WEB-DLRip-AVC от ExKinoRay | HDRezka Studio 745.54 MB ↑ 89 ↓ 15
2019-04-11 U Лазарат / Lazarat (2019) WEB-DLRip от MegaPeer | HDRezka Studio 1.46 GB ↑ 329 ↓ 161

Отзывы
Зарегистрируйтесь чтобы добавить комментарий.
Обратная связь
Copyleft ©