↑↓Torrent.by
Поиск
Логин: Регистрация
Пароль: Восстановить пароль
Загрузка...

Кровь викинга / Viking Blood (2019) WEB-DL 1080p от ExKinoRay | HDRezka Studio

Скачать krov-vikinga-viking-blood-2019-web-dl-1080p-ot-exkinoray-hdrezka-studio.torrent
U Магнитная ссылка Размер: 3.24 GB Раздают: 645 Качают: 228 Добавлен: 2019-04-11 19:18:57
Кровь викинга / Viking Blood (2019) WEB-DL 1080p от ExKinoRay | HDRezka Studio

Название: Кровь викинга
Оригинальное название: Viking Blood
Год выпуска: 2019
Жанр:  Боевик
Режиссер: Ури Шварц
В ролях: Роберт Фоллин, Пернилла Бергендорф, Ури Шварц, Миа Лердам, Мартин Хестбек, Ирина Франкильд, Майкл Раджани, Карен Маргрет Готфредсен, Арнар Орвар Бломстерберг, Питер Хольст

Описание:   Одинокий воин прибывает в деревню викингов, разрываемую религиозной междуусобицей между последователями старых богов и отступниками, привезшими из Англии христианство. Чужеземец, не отягощённый моралью, решает заработать на их противостоянии и попутно доказать, что никаких богов не существует.

Выпущено: Дания, Fluxform Entertainment
Продолжительность: 01:28:52
Перевод: Профессиональный (многоголосый, закадровый) | HDRezka Studio

БЕЗ КАКОЙ-ЛИБО РЕКЛАМЫ!

Формат: MKV
Качество: WEB-DL 1080p
Видео: MPEG-4 AVC, 1916x792 (2.40:1), 25.000 fps, 4476 Kbps, 0.118 bit/pixel
Аудио 1: 48 kHz, AC3, 2.0, 256 Kbps | MVO | RUS |
Аудио 2: 48 kHz, AC3, 5.1, 384 Kbps | Оригинал |  ENG |

Релиз:

Автор релиза:


[+] ОтчетМедиаИнфо
General
Unique ID                                : 221236878429908812919297510387292031639 (0xA670AC42FBDBAFFCA2F9FF025703CA97)
Complete name                            : F:Viking.Blood.2019.MVO.1080p.WEB-DL.ExKinoRat.mkv
Format                                   : Matroska
Format version                           : Version 2
File size                                : 3.24 GiB
Duration                                 : 1 h 28 min
Overall bit rate                         : 5 220 kb/s
Movie name                               : Viking Blood 2019 from ExKinoRay
Encoded date                             : UTC 2019-04-11 02:42:46
Writing application                      : mkvmerge v5.6.0 ('Kenya Kane') built on May 27 2012 16:44:04
Writing library                          : libebml v1.2.3 + libmatroska v1.3.0

Video
ID                                       : 1
Format                                   : AVC
Format/Info                              : Advanced Video Codec
Format profile                           : High@L4
Format settings, CABAC                   : Yes
Format settings, ReFrames                : 5 frames
Codec ID                                 : V_MPEG4/ISO/AVC
Duration                                 : 1 h 28 min
Bit rate                                 : 4 476 kb/s
Width                                    : 1 916 pixels
Height                                   : 792 pixels
Display aspect ratio                     : 2.40:1
Frame rate mode                          : Constant
Frame rate                               : 25.000 FPS
Color space                              : YUV
Chroma subsampling                       : 4:2:0
Bit depth                                : 8 bits
Scan type                                : Progressive
Bits/(Pixel*Frame)                       : 0.118
Stream size                              : 2.78 GiB (86%)
Title                                    : Viking.Blood.2019.1080p
Language                                 : English
Default                                  : Yes
Forced                                   : No
Color range                              : Limited
Color primaries                          : BT.709
Transfer characteristics                 : BT.709
Matrix coefficients                      : BT.709

Audio #1
ID                                       : 2
Format                                   : AC-3
Format/Info                              : Audio Coding 3
Mode extension                           : CM (complete main)
Format settings, Endianness              : Big
Codec ID                                 : A_AC3
Duration                                 : 1 h 28 min
Bit rate mode                            : Constant
Bit rate                                 : 256 kb/s
Channel(s)                               : 2 channels
Channel positions                        : Front: L R
Sampling rate                            : 48.0 kHz
Frame rate                               : 31.250 FPS (1536 spf)
Compression mode                         : Lossy
Stream size                              : 163 MiB (5%)
Title                                    : MVO (HDRezka Studio)
Language                                 : Russian
Default                                  : No
Forced                                   : No

Audio #2
ID                                       : 3
Format                                   : AC-3
Format/Info                              : Audio Coding 3
Mode extension                           : CM (complete main)
Format settings, Endianness              : Big
Codec ID                                 : A_AC3
Duration                                 : 1 h 28 min
Bit rate mode                            : Constant
Bit rate                                 : 384 kb/s
Channel(s)                               : 6 channels
Channel positions                        : Front: L C R, Side: L R, LFE
Sampling rate                            : 48.0 kHz
Frame rate                               : 31.250 FPS (1536 spf)
Compression mode                         : Lossy
Stream size                              : 244 MiB (7%)
Language                                 : English
Default                                  : No
Forced                                   : No

Menu
00:00:00.000                             : en:1
00:23:35.000                             : en:2
00:46:31.000                             : en:3
01:05:42.000                             : en:4
01:25:53.000                             : en:5




Скриншоты:
[+] Всего файлов в раздаче - 1:
Viking.Blood.2019.MVO.1080p.WEB-DL.ExKinoRat.mkv3.24 GB

Показать еще раздачи по запросу кровь:
2019-05-24 U Кровь и сокровища / Blood & Treasure [01x01-02 из 13] (2019) WEB-DL | TUMBLER Studio 1.27 GB ↑ 45 ↓ 4
2019-05-19 U Следствие вели... с Леонидом Каневским. Дом, где стекает кровь [эфир от 19.05] (2019) WEBRip 1080p от ExKinoRay 1.77 GB ↑ 70 ↓ 16
2019-04-11 U Кровь викинга / Viking Blood (2019) WEB-DLRip от Portablius | HDRezka Studio 744.68 MB ↑ 262 ↓ 94
2019-02-13 U Джордж Мартин - Пламя и кровь: Пляска смерти (2019) FB2 4.17 MB ↑ 106 ↓ 4
2018-12-29 U Чужая кровь [01-20 из 20] (2018) WEBRip от GeneralFilm 10.88 GB ↑ 55 ↓ 82
2018-12-28 U Чужая кровь [01-20 из 20] (2018) HDTVRip от GeneralFilm 12.92 GB ↑ 73 ↓ 145
2018-12-27 U Чужая кровь [01-20 из 20] (2018) SATRip-AVC 12.39 GB ↑ 3 ↓ 4

Отзывы
Зарегистрируйтесь чтобы добавить комментарий.
Обратная связь
Copyleft ©