↑↓Torrent.by
Поиск
Логин: Регистрация
Пароль: Восстановить пароль
Загрузка...

Кровь викинга / Viking Blood (2019) WEB-DLRip от Portablius | HDRezka Studio

Скачать krov-vikinga-viking-blood-2019-web-dlrip-ot-portablius-hdrezka-studio.torrent
U Магнитная ссылка Размер: 744.68 MB Раздают: 254 Качают: 94 Добавлен: 2019-04-11 19:19:29
Кровь викинга / Viking Blood (2019) WEB-DLRip от Portablius | HDRezka Studio

Название: Кровь викинга
Оригинальное название: Viking Blood
Год выхода: 2019
Жанр: Боевик
Режиссер: Ури Шварц
В ролях: Роберт Фоллин, Пернилла Бергендорф, Ури Шварц, Миа Лердам, Мартин Хестбек, Ирина Франкильд, Майкл Раджани, Карен Маргрет Готфредсен, Арнар Орвар Бломстерберг, Питер Хольст

О фильме: Одинокий воин прибывает в деревню викингов, разрываемую религиозной междуусобицей между последователями старых богов и отступниками, привезшими из Англии христианство. Чужеземец, не отягощённый моралью, решает заработать на их противостоянии и попутно доказать, что никаких богов не существует.

Страна: Дания
Студия: Fluxform Entertainment
Продолжительность: 01:28:52
Перевод: Профессиональный (многоголосый, закадровый) | HDRezka Studio
Субтитры: нет

Файл
Кодек: XviD
Качество: WEB-DLRip
Видео: 704x288 (2.44:1), 25 fps, XviD build 73 ~1033 kbps avg, 0.20 bit/pixel
Звук: 48 kHz, MPEG Layer 3, 2 ch, ~128.00 kbps avg


[+] MediaInfo
General
Complete name               : Viking.Blood.2019.WEB-DLRip.Portablius.avi
Format                      : AVI
Format/Info                 : Audio Video Interleave
File size                   : 745 MiB
Duration                    : 1 h 28 min
Overall bit rate            : 1 172 kb/s
Writing application         : VirtualDubMod 1.5.10.3 | www.virtualdub-fr.org || (build 2550/release)
Writing library             : VirtualDubMod build 2550/release

Video
ID                          : 0
Format                      : MPEG-4 Visual
Format profile              : Advanced Simple@L5
Format settings             : BVOP1 / Custom Matrix
Format settings, BVOP       : 1
Format settings, QPel       : No
Format settings, GMC        : No warppoints
Format settings, Matrix     : Custom
Codec ID                    : XVID
Codec ID/Hint               : XviD
Duration                    : 1 h 28 min
Bit rate                    : 1 034 kb/s
Width                       : 704 pixels
Height                      : 288 pixels
Display aspect ratio        : 2.40:1
Frame rate                  : 25.000 FPS
Color space                 : YUV
Chroma subsampling          : 4:2:0
Bit depth                   : 8 bits
Scan type                   : Progressive
Compression mode            : Lossy
Bits/(Pixel*Frame)          : 0.204
Stream size                 : 657 MiB (88%)
Writing library             : XviD 73

Audio
ID                          : 1
Format                      : MPEG Audio
Format version              : Version 1
Format profile              : Layer 3
Codec ID                    : 55
Codec ID/Hint               : MP3
Duration                    : 1 h 28 min
Bit rate mode               : Constant
Bit rate                    : 128 kb/s
Channel(s)                  : 2 channels
Sampling rate               : 48.0 kHz
Frame rate                  : 41.667 FPS (1152 SPF)
Compression mode            : Lossy
Stream size                 : 81.4 MiB (11%)
Alignment                   : Aligned on interleaves
Interleave, duration        : 40  ms (1.00 video frame)
Interleave, preload duratio : 504  ms
Writing library             : LAME3.99r
Encoding settings           : -m s -V 4 -q 2 -lowpass 17 -b 128




Скриншоты:
[+] Всего файлов в раздаче - 1:
Viking.Blood.2019.WEB-DLRip.Portablius.avi744.68 MB

Показать еще раздачи по запросу кровь:
2019-04-11 U Кровь викинга / Viking Blood (2019) WEB-DL 1080p от ExKinoRay | HDRezka Studio 3.24 GB ↑ 643 ↓ 227
2019-02-13 U Джордж Мартин - Пламя и кровь: Пляска смерти (2019) FB2 4.17 MB ↑ 75 ↓ 5
2018-12-29 U Чужая кровь [01-20 из 20] (2018) WEBRip от GeneralFilm 10.88 GB ↑ 55 ↓ 82
2018-12-28 U Чужая кровь [01-20 из 20] (2018) HDTVRip от GeneralFilm 12.92 GB ↑ 73 ↓ 145
2018-12-27 U Чужая кровь [01-20 из 20] (2018) SATRip-AVC 12.39 GB ↑ 3 ↓ 4
2018-12-27 U Джордж Мартин - Песнь Льда и Пламени. Пламя и Кровь: Кровь Драконов (2018) MP3 834.19 MB ↑ 126 ↓ 3
2018-12-26 U Чужая кровь [01-18 из 20] (2018) HDTVRip от GeneralFilm 1К11.64 GB ↑ 29 ↓ 57

Отзывы
Зарегистрируйтесь чтобы добавить комментарий.
Обратная связь
Copyleft ©