↑↓Torrent.by
Поиск
Логин: Регистрация
Пароль: Восстановить пароль
Загрузка...

Любовницы (2019) WEB-DL 1080p | iTunes

Скачать lyubovnicy-2019-web-dl-1080p-itunes.torrent
U Магнитная ссылка Размер: 3.37 GB Раздают: 541 Качают: 379 Добавлен: 2019-04-12 08:13:32
Любовницы (2019) WEB-DL 1080p | iTunes

Название: Любовницы
Год выхода: 2019
Жанр:  Комедия
Режиссер: Елена Хазанова
В ролях: Паулина Андреева, Александра Бортич, Юлия Александрова, Мария Шалаева, Сергей Гармаш, Гоша Куценко, Юрий Стоянов, Максим Лагашкин, Александр Робак, Владимир Мишуков

О фильме: Три обычные москвички - медсестра, студентка и актриса - случайно встречаются в баре и выясняют, что все они только что расстались со своими мужчинами, которые оказались связаны узами брака. Для начала девушки решают отомстить своим бывшим. Но, когда цель достигнута, у подруг появляется идея: используя свою смекалку и артистические способности, помогать таким же как они, сёстрам по несчастью, выводить на чистую воду неверных мужей и наказывать двуличных любовников. Ведь таких, как они - тысячи.

Выпущено: Россия, КВФильм-Продакшн, Революция Фильм
Продолжительность: 01:37:22
Язык: Русский | iTunes

Файл
Качество: WEB-DL 1080p
Контейнер: MKV
Видео: MPEG-4 AVC, 4474 Kb/s, 1920x806
Аудио: Русский: AC3, 6 ch, 384 Kb/s
Субтитры: Нет

Релиз:


[+] MediaInfo
General
Unique ID                                : 174509135742361185101553740099800808327 (0x83493CACA829C7EFAA8A3278FF983B87)
Complete name                            : Lyubovnitsy.WEB-DL.1080p.ELEKTRI4KA.UNIONGANG.mkv
Format                                   : Matroska
Format version                           : Version 2
File size                                : 3.37 GiB
Duration                                 : 1 h 37 min
Overall bit rate                         : 4 957 kb/s
Movie name                               : Любовницы (2019) UNIONGANG
Encoded date                             : UTC 2019-04-11 18:03:41
Writing application                      : mkvmerge v6.9.1 ('Blue Panther') 32bit built on Apr 18 2014 18:15:44
Writing library                          : libebml v1.3.0 + libmatroska v1.4.1

Video
ID                                       : 1
Format                                   : AVC
Format/Info                              : Advanced Video Codec
Format profile                           : High@L4
Format settings, CABAC                   : Yes
Format settings, RefFrames               : 5 frames
Codec ID                                 : V_MPEG4/ISO/AVC
Duration                                 : 1 h 37 min
Bit rate                                 : 4 474 kb/s
Width                                    : 1 920 pixels
Height                                   : 806 pixels
Display aspect ratio                     : 2.40:1
Frame rate mode                          : Constant
Frame rate                               : 24.000 FPS
Color space                              : YUV
Chroma subsampling                       : 4:2:0
Bit depth                                : 8 bits
Scan type                                : Progressive
Bits/(Pixel*Frame)                       : 0.120
Stream size                              : 3.04 GiB (90%)
Language                                 : English
Default                                  : Yes
Forced                                   : No
Color range                              : Limited
Color primaries                          : BT.709
Transfer characteristics                 : BT.709
Matrix coefficients                      : BT.709

Audio
ID                                       : 2
Format                                   : AC-3
Format/Info                              : Audio Coding 3
Format settings, Endianness              : Big
Codec ID                                 : A_AC3
Duration                                 : 1 h 37 min
Bit rate mode                            : Constant
Bit rate                                 : 384 kb/s
Channel(s)                               : 6 channels
Channel positions                        : Front: L C R, Side: L R, LFE
Sampling rate                            : 48.0 kHz
Frame rate                               : 31.250 FPS (1536 SPF)
Bit depth                                : 16 bits
Compression mode                         : Lossy
Stream size                              : 267 MiB (8%)
Title                                    : iTunes
Language                                 : Russian
Service kind                             : Complete Main
Default                                  : Yes
Forced                                   : No

Menu
00:00:00.000                             : en:Глава 1
00:05:53.166                             : en:Глава 2
00:12:35.332                             : en:Глава 3
00:21:45.831                             : en:Глава 4
00:28:45.289                             : en:Глава 5
00:33:28.497                             : en:Глава 6
00:42:54.497                             : en:Глава 7
00:50:50.872                             : en:Глава 8
00:57:25.247                             : en:Глава 9
01:07:50.080                             : en:Глава 10
01:13:25.996                             : en:Глава 11
01:19:39.578                             : en:Глава 12
01:25:26.994                             : en:Глава 13
01:32:32.994                             : en:Глава 14
01:37:21.994                             : en:Глава 15



Скриншоты:
[+] Всего файлов в раздаче - 1:
Lyubovnitsy.WEB-DL.1080p.ELEKTRI4KA.UNIONGANG.mkv3.37 GB

Показать еще раздачи по запросу любовницы:
2019-04-16 U Любовницы (2019) WEB-DLRip-AVC от OlLanDGroup | iTunes 744.21 MB ↑ 51 ↓ 7
2019-04-16 U Любовницы (2019) WEB-DLRip-AVC от OlLanDGroup | iTunes 1.46 GB ↑ 86 ↓ 7
2019-04-14 U Любовницы (2019) WEB-DLRip от Scarabey | iTunes 1.44 GB ↑ 145 ↓ 47
2019-04-13 U Любовницы (2019) WEB-DLRip от Generalfilm | КПК | iTunes 369.20 MB ↑ 84 ↓ 15
2019-04-12 U Любовницы (2019) WEB-DLRip от Dalemake | iTunes 1.44 GB ↑ 255 ↓ 154
2019-04-12 U Любовницы (2019) WEB-DLRip от GeneralFilm | iTunes 745.76 MB ↑ 339 ↓ 155
2019-02-06 U Ника Набокова - #В постели с твоим мужем. Записки любовницы. Женам читать обязательно! (2017) FB2 819.18 kB ↑ 201 ↓ 8

Отзывы
Зарегистрируйтесь чтобы добавить комментарий.
Обратная связь
Copyleft ©