↑↓Torrent.by
Поиск
Логин: Регистрация
Пароль: Восстановить пароль
Загрузка...

Игрушечный пистолет / Toy Gun (2018) WEB-DL 1080p | HDRezka Studio

Скачать igrushechnyy-pistolet-toy-gun-2018-web-dl-1080p-hdrezka-studio.torrent
U Магнитная ссылка Размер: 4.12 GB Раздают: 230 Качают: 101 Добавлен: 2019-04-12 08:13:41
Игрушечный пистолет / Toy Gun (2018) WEB-DL 1080p | HDRezka Studio

Название: Игрушечный пистолет
Оригинальное название: Toy Gun
Год выпуска: 2018
Жанр:  Комедия, боевик, криминал
Режиссер: Марко Серафини
В ролях: Люк Аллен-Гейл, Федерико Кастеллуччо, Джон Ханна, Джанин Хорсбур, Клер Джонстон, Энтони ЛаПалья, София Лопес, Энди МакКелл, Джулиан Нест, Нассим Рачи, Джулиан Сэндс

О фильме: Игрушечный пистолет - это забавная чёрная комедия о кротком молодом человеке, который импульсивно грабит банк, чтобы доказать своей бывшей жене, что он храбрый и мужественный. Полицейское расследование затрагивает всех, кроме нашего героя, которого, по иронии судьбы, оно полностью игнорирует. Большие деньги приносят большие проблемы, и в это время у Ружеро появляется новый сосед.

Выпущено: Германия, Бельгия, Люксембург, Calach Films, Gardner & Domm, Mollywood
Продолжительность: 01:43:09
Перевод: Профессиональный (многоголосый, закадровый) | HDRezka Studio

Файл
Качество: WEB-DL 1080p
Контейнер: MKV
Видео: MPEG-4 AVC, 5293 Кбит/с, 1920x1080
Аудио 1: Русский: AC3, 2 ch, 192 Кбит/с - HDRezka Studio
Аудио 2: Английский: Е-AC3, 2 ch, 224 Кбит/с - Original
Субтитры: Английские


[+] MediaInfo
General
Unique ID                                : 147105377961713294123444225936121138542 (0x6EAB7719F2B6A90BD556C06C4C500D6E)
Complete name                            : G:Toy.Gun.2018.WEB-DL.1080p.mkv
Format                                   : Matroska
Format version                           : Version 4 / Version 2
File size                                : 4.12 GiB
Duration                                 : 1 h 43 min
Overall bit rate                         : 5 712 kb/s
Encoded date                             : UTC 2019-04-11 16:10:39
Writing application                      : mkvmerge v20.0.0 ('I Am The Sun') 64-bit
Writing library                          : libebml v1.3.5 + libmatroska v1.4.8

Video
ID                                       : 1
Format                                   : AVC
Format/Info                              : Advanced Video Codec
Format profile                           : High@L4
Format settings                          : CABAC / 4 Ref Frames
Format settings, CABAC                   : Yes
Format settings, RefFrames               : 4 frames
Codec ID                                 : V_MPEG4/ISO/AVC
Duration                                 : 1 h 43 min
Bit rate                                 : 5 293 kb/s
Width                                    : 1 920 pixels
Height                                   : 1 080 pixels
Display aspect ratio                     : 16:9
Frame rate mode                          : Constant
Frame rate                               : 23.976 (24000/1001) FPS
Color space                              : YUV
Chroma subsampling                       : 4:2:0
Bit depth                                : 8 bits
Scan type                                : Progressive
Bits/(Pixel*Frame)                       : 0.106
Stream size                              : 3.81 GiB (93%)
Language                                 : English
Default                                  : Yes
Forced                                   : No
Color range                              : Limited
Color primaries                          : BT.709
Transfer characteristics                 : BT.709
Matrix coefficients                      : BT.709

Audio #1
ID                                       : 2
Format                                   : AC-3
Format/Info                              : Audio Coding 3
Codec ID                                 : A_AC3
Duration                                 : 1 h 43 min
Bit rate mode                            : Constant
Bit rate                                 : 192 kb/s
Channel(s)                               : 2 channels
Channel positions                        : Front: L R
Sampling rate                            : 48.0 kHz
Frame rate                               : 31.250 FPS (1536 SPF)
Bit depth                                : 16 bits
Compression mode                         : Lossy
Stream size                              : 142 MiB (3%)
Title                                    : MVO HDRezka
Language                                 : Russian
Service kind                             : Complete Main
Default                                  : Yes
Forced                                   : No

Audio #2
ID                                       : 3
Format                                   : E-AC-3
Format/Info                              : Enhanced Audio Coding 3
Codec ID                                 : A_EAC3
Duration                                 : 1 h 43 min
Bit rate mode                            : Constant
Bit rate                                 : 224 kb/s
Channel(s)                               : 2 channels
Channel positions                        : Front: L R
Sampling rate                            : 48.0 kHz
Frame rate                               : 187.500 FPS (256 SPF)
Compression mode                         : Lossy
Stream size                              : 165 MiB (4%)
Language                                 : English
Service kind                             : Complete Main
Default                                  : No
Forced                                   : No

Text
ID                                       : 4
Format                                   : UTF-8
Codec ID                                 : S_TEXT/UTF8
Codec ID/Info                            : UTF-8 Plain Text
Duration                                 : 1 h 39 min
Bit rate                                 : 61 b/s
Count of elements                        : 1598
Stream size                              : 44.8 KiB (0%)
Language                                 : English
Default                                  : No
Forced                                   : No



Скриншоты:
[+] Всего файлов в раздаче - 1:
Toy.Gun.2018.WEB-DL.1080p.mkv4.12 GB

Похожие раздачи по запросу - игрушечный:
2019-04-12 U Игрушечный пистолет / Toy Gun (2018) WEB-DLRip | HDRezka Studio 1.46 GB ↑ 247 ↓ 92

Отзывы
Зарегистрируйтесь чтобы добавить комментарий.
Обратная связь
Copyleft ©