↑↓Torrent.by
Поиск
Логин: Регистрация
Пароль: Восстановить пароль
Загрузка...

В поисках Стива Маккуина / Finding Steve McQueen (2018) WEB-DL 1080p | HDRezka Studio

Скачать v-poiskah-stiva-makkuina-finding-steve-mcqueen-2018-web-dl-1080p-hdrezka-studio.torrent
U Магнитная ссылка Размер: 6.02 GB Раздают: 142 Качают: 60 Добавлен: 2019-04-12 08:14:06
В поисках Стива Маккуина / Finding Steve McQueen (2018) WEB-DL 1080p | HDRezka Studio

Название: В поисках Стива Маккуина
Оригинальное название: Finding Steve McQueen
Год выпуска: 2018
Жанр:  Криминал, мелодрама
Режиссер: Марк Стивен Джонсон
В ролях: Трэвис Фиммел, Уильям Фихтнер, Рэйчел Тейлор, Форест Уитакер, Лили Рэйб, Джейк Вири, Рис Койро, Джон Финн, Луис Ломбарди, Джоя Либардони

О фильме: Действия фильма происходят в 1972 году накануне очередных выборов президента США. Шайка преступников решает совершить ограбление века и завладеть незаконным предвыборным фондом Ричарда Никсона. На кону оказывается огромная сумма в тридцать миллионов долларов. Чтобы добиться успеха, преступникам необходимо продумать каждый свой шаг, каждое дыхание. Им удается придумать безупречный план, но в момент проведения операции, в дело вмешивается его величество случай и преступники оказываются в очень сложном положении. Теперь они готовы сделать все, чтобы не попасть в руки полиции.

Выпущено: США, AMBI Group, BondIt Media Capital, Identity Films
Продолжительность: 01:31:46
Перевод: Профессиональный (многоголосый, закадровый) | HDRezka Studio

Файл
Качество: WEB-DL 1080p
Контейнер: MKV
Видео: MPEG-4 AVC, 8554 Кбит/с, 1920x1040
Аудио 1: Русский: AC3, 2 ch, 192 Кбит/с - HDRezka Studio
Аудио 2: Английский: Е-AC3, 6 ch, 640 Кбит/с - Original
Субтитры: Английские


[+] MediaInfo
General
Unique ID                                : 186720775040429134128026390617931093806 (0x8C791CF9F38E4081DB29632995EF972E)
Complete name                            : G:Finding.Steve.McQueen.2018.WEB-DL.1080p.mkv
Format                                   : Matroska
Format version                           : Version 4 / Version 2
File size                                : 6.02 GiB
Duration                                 : 1 h 31 min
Overall bit rate                         : 9 388 kb/s
Encoded date                             : UTC 2019-04-11 12:59:29
Writing application                      : mkvmerge v20.0.0 ('I Am The Sun') 64-bit
Writing library                          : libebml v1.3.5 + libmatroska v1.4.8

Video
ID                                       : 1
Format                                   : AVC
Format/Info                              : Advanced Video Codec
Format profile                           : High@L4
Format settings                          : CABAC / 4 Ref Frames
Format settings, CABAC                   : Yes
Format settings, RefFrames               : 4 frames
Codec ID                                 : V_MPEG4/ISO/AVC
Duration                                 : 1 h 31 min
Bit rate mode                            : Constant
Bit rate                                 : 8 554 kb/s
Nominal bit rate                         : 10 000 kb/s
Width                                    : 1 920 pixels
Height                                   : 1 040 pixels
Display aspect ratio                     : 1.85:1
Frame rate mode                          : Constant
Frame rate                               : 23.976 (24000/1001) FPS
Color space                              : YUV
Chroma subsampling                       : 4:2:0
Bit depth                                : 8 bits
Scan type                                : Progressive
Bits/(Pixel*Frame)                       : 0.179
Stream size                              : 5.48 GiB (91%)
Language                                 : English
Default                                  : Yes
Forced                                   : No
Color range                              : Limited
Color primaries                          : BT.709
Transfer characteristics                 : BT.709
Matrix coefficients                      : BT.709

Audio #1
ID                                       : 2
Format                                   : AC-3
Format/Info                              : Audio Coding 3
Codec ID                                 : A_AC3
Duration                                 : 1 h 31 min
Bit rate mode                            : Constant
Bit rate                                 : 192 kb/s
Channel(s)                               : 2 channels
Channel positions                        : Front: L R
Sampling rate                            : 48.0 kHz
Frame rate                               : 31.250 FPS (1536 SPF)
Bit depth                                : 16 bits
Compression mode                         : Lossy
Stream size                              : 126 MiB (2%)
Title                                    : MVO HDRezka
Language                                 : Russian
Service kind                             : Complete Main
Default                                  : Yes
Forced                                   : No

Audio #2
ID                                       : 3
Format                                   : E-AC-3
Format/Info                              : Enhanced Audio Coding 3
Codec ID                                 : A_EAC3
Duration                                 : 1 h 31 min
Bit rate mode                            : Constant
Bit rate                                 : 640 kb/s
Channel(s)                               : 6 channels
Channel positions                        : Front: L C R, Side: L R, LFE
Sampling rate                            : 48.0 kHz
Frame rate                               : 187.500 FPS (256 SPF)
Compression mode                         : Lossy
Stream size                              : 420 MiB (7%)
Language                                 : English
Service kind                             : Complete Main
Default                                  : No
Forced                                   : No

Text
ID                                       : 4
Format                                   : UTF-8
Codec ID                                 : S_TEXT/UTF8
Codec ID/Info                            : UTF-8 Plain Text
Duration                                 : 1 h 29 min
Bit rate                                 : 64 b/s
Count of elements                        : 1276
Stream size                              : 42.3 KiB (0%)
Language                                 : English
Default                                  : No
Forced                                   : No



Скриншоты:
[+] Всего файлов в раздаче - 1:
Finding.Steve.McQueen.2018.WEB-DL.1080p.mkv6.02 GB

Показать еще раздачи по запросу поисках:
2019-04-13 U В поисках Стива Маккуина / Finding Steve McQueen (2018) WEB-DLRip | HDRezka Studio 1.46 GB ↑ 130 ↓ 30
2018-06-29 U В поисках праздника / The Leisure Seeker (2017) HDRip | GreenРай Studio 1.37 GB ↑ 22 ↓ 4
2018-03-03 U Дикарь / Гоген. В поисках рая / Gauguin - Voyage de Tahiti (2017) WEBRip 720p | D | Line 2.51 GB ↑ 296 ↓ 152
2018-02-12 U В поисках Феллини / In Search of Fellini (2017) DVDRip | L1 1.40 GB ↑ 49 ↓ 31
2018-01-09 U В поисках забытой магии / Lost Magic decoded (2012) HDTVRip 720p | P1 2.53 GB ↑ 41 ↓ 14
2018-01-07 U В поисках Галактики / Galaxy Quest (1999) BDRip-AVC от ExKinoRay | P 746.01 MB ↑ 145 ↓ 19
2017-08-05 U Доспехи бога: В поисках сокровищ / Кунг-фу йога / Kung-Fu Yoga / Gong Fu Yu Jia (2017) HDRip от Scarabey | Лицензия 1.45 GB ↑ 604 ↓ 57

Отзывы
Зарегистрируйтесь чтобы добавить комментарий.
Обратная связь
Copyleft ©