↑↓Torrent.by
Поиск
Логин: Регистрация
Пароль: Восстановить пароль
Загрузка...

Игрушечный пистолет / Toy Gun (2018) WEB-DLRip | HDRezka Studio

Скачать igrushechnyy-pistolet-toy-gun-2018-web-dlrip-hdrezka-studio.torrent
U Магнитная ссылка Размер: 1.46 GB Раздают: 252 Качают: 93 Добавлен: 2019-04-12 14:22:35
Игрушечный пистолет / Toy Gun (2018) WEB-DLRip | HDRezka Studio

Игрушечный пистолет / Toy Gun

Страна: Германия  Бельгия  Люксембург
Производство: Calach Films, Mollywood, Gardner & Domm
Год выпуска: 2018
Жанр:  боевик, комедия, криминал
Продолжительность: 01:43:09

Режиссер: Марко Серафини
Авторы сценария: Марко Серафини, Винс Виллани
В ролях: Люк Аллен-Гейл, Федерико Кастеллуччо, Джон Ханна, Джанин Хорсбур, Клер Джонстон, Энтони ЛаПалья, София Лопес, Энди МакКелл

Описание: Руджеро грабит банк, чтобы доказать своей бывшей жене, что он чего-то стоит. Однако полицейское расследование затрагивает всех, кроме нашего скромного героя: ему сходит с рук это ограбление, в то время как коррумпированные банковские чиновники берут на себя ответственность за случившееся...

Перевод: Профессиональный (многоголосый, закадровый) | HDRezka Studio
Субтитры: нет

Качество: WEB-DLRip
Формат: AVI
Видео кодек: XviD
Аудио кодек: АС3
Видео: 720x304 (2.35:1), 23.976 fps, XviD build 73 ~1 819 kbps avg
Аудио: 48.0 kHz, AC3 Dolby Digital, 2/0 (L,R) ch, ~192 kbps

Дата премьеры (мир): 1 января 2018

Релиз от: порошков


[+] Media Info
General
Формат                                   : AVI
Формат/Информация                        : Audio Video Interleave
Размер файла                             : 1,46 Гбайт
Продолжительность                        : 1 ч. 43 м.
Общий поток                              : 2020 Кбит/сек
Программа кодирования                    : VirtualDubMod 1.5.10.3 | (build 2550/release)
Библиотека кодирования                   : VirtualDubMod build 2550/release

Видео
Идентификатор                            : 0
Формат                                   : MPEG-4 Visual
Профиль формата                          : Advanced Simple@L5
Настройки формата                        : BVOP1 / Custom Matrix
Параметр BVOP формата                    : 1
Параметр QPel формата                    : Нет
Параметр GMC формата                     : Без точки перехода
Параметр матрицы формата                 : Выборочная
Идентификатор кодека                     : XVID
Идентификатор кодека/Подсказка           : XviD
Продолжительность                        : 1 ч. 43 м.
Битрейт                                  : 1819 Кбит/сек
Ширина                                   : 720 пикселей
Высота                                   : 304 пикселя
Соотношение сторон                       : 2,35:1
Частота кадров                           : 23,976 (24000/1001) кадра/сек
Цветовое пространство                    : YUV
Субдискретизация насыщенности            : 4:2:0
Битовая глубина                          : 8 бит
Тип развёртки                            : Прогрессивная
Метод сжатия                             : С потерями
Бит/(Пиксели*Кадры)                      : 0.347
Размер потока                            : 1,31 Гбайт (90%)
Библиотека кодирования                   : XviD 73

Аудио
Идентификатор                            : 1
Формат                                   : AC-3
Формат/Информация                        : Audio Coding 3
Коммерческое название                    : Dolby Digital
Идентификатор кодека                     : 2000
Продолжительность                        : 1 ч. 43 м.
Вид битрейта                             : Постоянный
Битрейт                                  : 192 Кбит/сек
Каналы                                   : 2 канала
Channel layout                           : L R
Частота                                  : 48,0 КГц
Частота кадров                           : 31,250 кадров/сек (1536 SPF)
Битовая глубина                          : 16 бит
Метод сжатия                             : С потерями
Размер потока                            : 142 Мбайт (10%)
Выравнивание                             : Разделение по промежуткам
Продолжительность промежутка             : 42  мс. (1,00 видеокадр)
Время предзагрузки промежутка            : 500  мс.



Скриншоты:
[+] Всего файлов в раздаче - 1:
Игрушечный пистолет_2018_WEB-DLRip.avi1.46 GB

Похожие раздачи по запросу - игрушечный:
2019-04-12 U Игрушечный пистолет / Toy Gun (2018) WEB-DL 1080p | HDRezka Studio 4.12 GB ↑ 238 ↓ 101

Отзывы
Зарегистрируйтесь чтобы добавить комментарий.
Обратная связь
Copyleft ©