↑↓Torrent.by
Поиск
Логин: Регистрация
Пароль: Восстановить пароль
Загрузка...

Заблудившиеся / Stray (2019) WEB-DL 1080p | HDRezka Studio

Скачать zabludivshiesya-stray-2019-web-dl-1080p-hdrezka-studio.torrent
U Магнитная ссылка Размер: 3.15 GB Раздают: 116 Качают: 69 Добавлен: 2019-04-12 14:23:10
Заблудившиеся / Stray (2019) WEB-DL 1080p | HDRezka Studio

Название: Заблудившиеся
Оригинальное название: Stray
Год выпуска: 2019
Жанр:  Фэнтези, боевик, триллер, криминал
Режиссер: Джо Силл
В ролях: Карен Фукухара, Кристин Вудс, Мияви, Росс Патридж, Такайо Фишер, Саки Миата, Боб Бэнкрофт, Киран Деол, Соня Джексон, Суфьен Эль Халиди

О фильме: Полицейский детектив Стелла Мерфи, работающая в убойном отделе, возвращается из отпуска и приступает к расследованию странного убийства женщины: ее обугленное тело было найдено на заброшенном складе, однако в окрестностях не обнаружили ни единого признака пожара. Вскоре выясняется, что жертва вела тихую жизнь вместе с дочерью-подростком Нори и пожилой матерью. Разговор с последней не приносит желаемого результата, поэтому Стелла решает объединиться с осиротевшей девушкой в попытке собрать больше информации. Ситуация осложняется, когда детектив узнает о том, что Нори обладает сверхъестественной силой.

Выпущено: США, Diablo Entertainment, Engineer
Продолжительность: 01:27:16
Перевод: Профессиональный (многоголосый, закадровый) | HDRezka Studio

Файл
Качество: WEB-DL 1080p
Контейнер: MKV
Видео: MPEG-4 AVC, 4594 Кбит/с, 1920x796
Аудио 1: Русский: AC3, 2 ch, 192 Кбит/с - HDRezka Studio
Аудио 2: Английский: AC3, 6 ch, 384 Кбит/с - Original
Субтитры: Английские


[+] MediaInfo
General
Unique ID                                : 65452570469026400820066626483746853726 (0x313DB4DFD3EB77D7B7C30D1100AD535E)
Complete name                            : G:Stray.2019.WEB-DL.1080p.mkv
Format                                   : Matroska
Format version                           : Version 4 / Version 2
File size                                : 3.15 GiB
Duration                                 : 1 h 27 min
Overall bit rate                         : 5 173 kb/s
Encoded date                             : UTC 2019-04-12 06:25:03
Writing application                      : mkvmerge v20.0.0 ('I Am The Sun') 64-bit
Writing library                          : libebml v1.3.5 + libmatroska v1.4.8

Video
ID                                       : 1
Format                                   : AVC
Format/Info                              : Advanced Video Codec
Format profile                           : High@L4
Format settings                          : CABAC / 5 Ref Frames
Format settings, CABAC                   : Yes
Format settings, RefFrames               : 5 frames
Codec ID                                 : V_MPEG4/ISO/AVC
Duration                                 : 1 h 27 min
Bit rate                                 : 4 594 kb/s
Width                                    : 1 920 pixels
Height                                   : 796 pixels
Display aspect ratio                     : 2.40:1
Frame rate mode                          : Constant
Frame rate                               : 23.976 (24000/1001) FPS
Color space                              : YUV
Chroma subsampling                       : 4:2:0
Bit depth                                : 8 bits
Scan type                                : Progressive
Bits/(Pixel*Frame)                       : 0.125
Stream size                              : 2.80 GiB (89%)
Language                                 : English
Default                                  : Yes
Forced                                   : No
Color range                              : Limited
Color primaries                          : BT.709
Transfer characteristics                 : BT.709
Matrix coefficients                      : BT.709

Audio #1
ID                                       : 2
Format                                   : AC-3
Format/Info                              : Audio Coding 3
Codec ID                                 : A_AC3
Duration                                 : 1 h 27 min
Bit rate mode                            : Constant
Bit rate                                 : 192 kb/s
Channel(s)                               : 2 channels
Channel positions                        : Front: L R
Sampling rate                            : 48.0 kHz
Frame rate                               : 31.250 FPS (1536 SPF)
Bit depth                                : 16 bits
Compression mode                         : Lossy
Stream size                              : 120 MiB (4%)
Title                                    : MVO HDRezka
Language                                 : Russian
Service kind                             : Complete Main
Default                                  : Yes
Forced                                   : No

Audio #2
ID                                       : 3
Format                                   : AC-3
Format/Info                              : Audio Coding 3
Codec ID                                 : A_AC3
Duration                                 : 1 h 27 min
Bit rate mode                            : Constant
Bit rate                                 : 384 kb/s
Channel(s)                               : 6 channels
Channel positions                        : Front: L C R, Side: L R, LFE
Sampling rate                            : 48.0 kHz
Frame rate                               : 31.250 FPS (1536 SPF)
Bit depth                                : 16 bits
Compression mode                         : Lossy
Stream size                              : 240 MiB (7%)
Language                                 : English
Service kind                             : Complete Main
Default                                  : No
Forced                                   : No

Text
ID                                       : 4
Format                                   : UTF-8
Codec ID                                 : S_TEXT/UTF8
Codec ID/Info                            : UTF-8 Plain Text
Duration                                 : 1 h 21 min
Bit rate                                 : 34 b/s
Count of elements                        : 783
Stream size                              : 20.7 KiB (0%)
Language                                 : English
Default                                  : No
Forced                                   : No

Menu
00:00:00.000                             : en:1
00:05:26.000                             : en:2
00:11:06.000                             : en:3
00:16:20.000                             : en:4
00:21:43.000                             : en:5
00:27:12.000                             : en:6
00:32:35.000                             : en:7
00:38:04.000                             : en:8
00:43:03.000                             : en:9
00:49:07.000                             : en:10
00:54:17.000                             : en:11
00:59:49.000                             : en:12
01:05:10.000                             : en:13
01:10:40.000                             : en:14
01:16:07.000                             : en:15
01:21:34.000                             : en:16



Скриншоты:
[+] Всего файлов в раздаче - 1:
Stray.2019.WEB-DL.1080p.mkv3.15 GB

Похожие раздачи по запросу - заблудившиеся:
2019-04-13 U Заблудившиеся / Stray (2019) WEB-DLRip | HDRezka Studio 1.45 GB ↑ 96 ↓ 27
2018-05-01 U Заблудившиеся / Unhinged (2017) WEBRip | L1 1.17 GB ↑ 71 ↓ 41

Отзывы
Зарегистрируйтесь чтобы добавить комментарий.
Обратная связь
Copyleft ©