↑↓Torrent.by
Поиск
Логин: Регистрация
Пароль: Восстановить пароль
Загрузка...

Близко / Close (2019) BDRip 1080p от OlLanDGroup | HDRezka Studio

Скачать blizko-close-2019-bdrip-1080p-ot-ollandgroup-hdrezka-studio.torrent
U Магнитная ссылка Размер: 7.31 GB Раздают: 220 Качают: 39 Добавлен: 2019-04-12 16:26:51
Близко / Close (2019) BDRip 1080p от OlLanDGroup | HDRezka Studio

Близко / Close
«Trained Yo Protect. Born To Survive»

Год выпуска: 2019
Страна: Великобритания, США
Производство: Jewson Film, Whitaker Media
Жанр:  Боевик, триллер

Режиссёр: Вики Джуисон
В ролях: Нуми Рапас, Индира Варма, Софи Нелисс, Оуэн Мэкен, Чарли Палмер Ротуэлл, Акин Гази, Хув Парментер, Джордж Джорджиу, Кристофер Сиуреф, Оливия Джуисон

Перевод: Профессиональный многоголосый | [HDRezka Studio]
Субтитры: Английские (полные)
Реклама: Отсутствует

Описание: Сэм Карлсон — эксперт по безопасности и борьбе с терроризмом, привыкшая находиться в зонах боевых действий. После очередного задания она решает взяться за нетипичную для нее работу, заключающуюся в охране богатой девушки Зои, получившей в наследство все акции компании её покойного отца. Поначалу Сэм не удается найти общий язык с избалованной девицей, однако им приходится отложить все свои разногласия на потом, когда на Зои начинается настоящая охота. И теперь закаленная в боях Сэм должна использовать все свои навыки и многолетний опыт, чтобы спасти клиентку от смерти.

Качество: BDRip 1080p | BDRemux | Close.2019.1080p.BluRay.REMUX.AVC.DTS-HD.MA.5.1-FGT
Продолжительность: 01:34:29

Формат: MKV
Видео кодек: MPEG-4 AVC
Аудио кодек: AC3
Видео: 1920x804 (2,40:1), 24,000 fps, x264 ~9 371 kbps avg, 0.253 bit/pixel
Аудио #1: 48 kHz, AC3 Dolby Digital, 2 (L,R) ch, ~192.00 kbps avg | RUS (HDRezka Studio)
Аудио #2: 48 kHz, DTS Digital Theater System, 3/2 (L,C,R,l,r) + LFE ch, ~1 509.00 kbps avg | ENG

Дата премьеры (мир): 18 января 2019
Дата премьеры (РФ):
Цифровой релиз:

Релиз:


[+] MediaInfo

Общее
Уникальный идентификатор                 : 175242757024098143801866180277898214557 (0x83D686FF0802E552B3BCCDC65CD67C9D)
Полное имя                               : F:OlLanDGroupClose.2019.x264.BDRip.(1080p).OlLanDGroup.mkv
Формат                                   : Matroska
Версия формата                           : Version 4 / Version 2
Размер файла                             : 7,31 Гбайт
Продолжительность                        : 1 ч. 34 м.
Общий поток                              : 11,1 Мбит/сек
Название фильма                          : Близко.2019.Rip by: ollan
Дата кодирования                         : UTC 2019-04-12 13:21:45
Программа кодирования                    : mkvmerge v29.0.0 ('Like It Or Not') 64-bit
Библиотека кодирования                   : libebml v1.3.6 + libmatroska v1.4.9
Обложка                                  : Yes
Attachments                              : Cover - Close.png

Видео
Идентификатор                            : 1
Формат                                   : AVC
Формат/Информация                        : Advanced Video Codec
Профиль формата                          : High@L4.1
Параметр CABAC формата                   : Да
Параметр ReFrames формата                : 5 кадров
Идентификатор кодека                     : V_MPEG4/ISO/AVC
Продолжительность                        : 1 ч. 34 м.
Битрейт                                  : 9371 Кбит/сек
Ширина                                   : 1920 пикселей
Высота                                   : 804 пикселя
Соотношение сторон                       : 2,40:1
Режим частоты кадров                     : Постоянный
Частота кадров                           : 24,000 кадра/сек
Цветовое пространство                    : YUV
Субдискретизация насыщенности            : 4:2:0
Битовая глубина                          : 8 бит
Тип развёртки                            : Прогрессивная
Бит/(Пиксели*Кадры)                      : 0.253
Размер потока                            : 6,18 Гбайт (85%)
Библиотека кодирования                   : x264 core 146 r2538 121396c
Настройки программы                      : cabac=1 / ref=5 / deblock=1:-2:-3 / analyse=0x3:0x133 / me=umh / subme=11 / psy=1 / psy_rd=0.90:0.15 / mixed_ref=1 / me_range=64 / chroma_me=1 / trellis=2 / 8x8dct=1 / cqm=0 / deadzone=21,11 / fast_pskip=0 / chroma_qp_offset=-3 / threads=12 / lookahead_threads=3 / sliced_threads=0 / nr=0 / decimate=0 / interlaced=0 / bluray_compat=0 / constrained_intra=0 / bframes=10 / b_pyramid=2 / b_adapt=2 / b_bias=0 / direct=3 / weightb=1 / open_gop=0 / weightp=2 / keyint=240 / keyint_min=23 / scenecut=40 / intra_refresh=0 / rc_lookahead=40 / rc=2pass / mbtree=0 / bitrate=9371 / ratetol=1.0 / qcomp=0.60 / qpmin=0 / qpmax=69 / qpstep=4 / cplxblur=20.0 / qblur=0.5 / vbv_maxrate=50000 / vbv_bufsize=62500 / nal_hrd=none / filler=0 / ip_ratio=1.40 / pb_ratio=1.30 / aq=1:1.00
Язык                                     : English
Default                                  : Нет
Forced                                   : Нет

Аудио #1
Идентификатор                            : 2
Формат                                   : AC-3
Формат/Информация                        : Audio Coding 3
Расширение режима                        : CM (complete main)
Параметр Endianness формата              : Big
Идентификатор кодека                     : A_AC3
Продолжительность                        : 1 ч. 34 м.
Вид битрейта                             : Постоянный
Битрейт                                  : 192 Кбит/сек
Каналы                                   : 2 канала
Расположение каналов                     : Front: L R
Частота                                  : 48,0 КГц
Частота кадров                           : 31,250 кадров/сек (1536 spf)
Битовая глубина                          : 16 бит
Метод сжатия                             : С потерями
Размер потока                            : 130 Мбайт (2%)
Заголовок                                : MVO [HDRezka Studio]
Язык                                     : Russian
Default                                  : Да
Forced                                   : Нет

Аудио #2
Идентификатор                            : 3
Формат                                   : DTS
Формат/Информация                        : Digital Theater Systems
Режим                                    : 16
Параметр Endianness формата              : Big
Идентификатор кодека                     : A_DTS
Продолжительность                        : 1 ч. 34 м.
Вид битрейта                             : Постоянный
Битрейт                                  : 1509 Кбит/сек
Каналы                                   : 6 каналов
Расположение каналов                     : Front: L C R, Side: L R, LFE
Частота                                  : 48,0 КГц
Частота кадров                           : 93,750 кадра/сек (512 spf)
Битовая глубина                          : 16 бит
Метод сжатия                             : С потерями
Размер потока                            : 1020 Мбайт (14%)
Заголовок                                : [Original]
Язык                                     : English
Default                                  : Нет
Forced                                   : Нет

Текст
Идентификатор                            : 4
Формат                                   : UTF-8
Идентификатор кодека                     : S_TEXT/UTF8
Идентификатор кодека/Информация          : UTF-8 Plain Text
Продолжительность                        : 1 ч. 27 м.
Битрейт                                  : 31 бит/сек
Count of elements                        : 688
Размер потока                            : 20,3 Кбайт (0%)
Заголовок                                : Full
Язык                                     : English
Default                                  : Нет
Forced                                   : Нет

Меню
00:00:00.000                             : en:Chapter 01
00:07:33.541                             : en:Chapter 02
00:13:05.458                             : en:Chapter 03
00:23:29.208                             : en:Chapter 04
00:34:15.333                             : en:Chapter 05
00:40:17.041                             : en:Chapter 06
00:51:18.208                             : en:Chapter 07
00:57:52.541                             : en:Chapter 08
01:04:21.375                             : en:Chapter 09
01:13:08.000                             : en:Chapter 10
01:18:06.750                             : en:Chapter 11
01:26:20.083                             : en:Chapter 12



Скриншоты:
[+] Всего файлов в раздаче - 1:
Close.2019.x264.BDRip.(1080p).OlLanDGroup.mkv7.31 GB

Показать еще раздачи по запросу близко:
2019-04-12 U Близко / Close (2019) BDRip от MegaPeer | HDRezka Studio 1.46 GB ↑ 132 ↓ 4
2019-02-21 U Близко / Close (2019) WEBRip-AVC от OlLanDGroup | HDRezka Studio 1.60 GB ↑ 171 ↓ 40
2019-02-21 U Близко / Close (2019) WEBRip 1080p от OlLanDGroup | HDRezka Studio 3.07 GB ↑ 785 ↓ 248
2019-02-21 U Близко / Close (2019) WEBRip от MegaPeer | HDRezka Studio 1.46 GB ↑ 962 ↓ 262
2019-02-07 U Близко / Close (2019) WEBRip | UKR 2.02 GB ↑ 67 ↓ 15
2019-02-06 U Близко / Close (2019) WEBRip 1080p | UKR 3.20 GB ↑ 39 ↓ 11
2019-01-26 U Близко / Close (2019) WEBRip 1080p | LakeFilms 2.53 GB ↑ 319 ↓ 143

Отзывы
Зарегистрируйтесь чтобы добавить комментарий.
Обратная связь
Copyleft ©