↑↓Torrent.by
Поиск
Логин: Регистрация
Пароль: Восстановить пароль
Загрузка...

Русская невеста / The Russian Bride (2019) WEB-DL 1080p от OlLanDGroup | HDRezka Studio

Скачать russkaya-nevesta-the-russian-bride-2019-web-dl-1080p-ot-ollandgroup-hdrezka-studio.torrent
U Магнитная ссылка Размер: 7.09 GB Раздают: 80 Качают: 32 Добавлен: 2019-04-12 16:27:38
Русская невеста / The Russian Bride (2019) WEB-DL 1080p от OlLanDGroup | HDRezka Studio

Русская невеста / The Russian Bride
«Hear no evil»

Год выпуска: 2019
Страна: США
Производство: Reigning Entertainment, Millman Productions, Edge West Productions
Жанр:  Ужасы, триллер

Режиссёр: Майкл С. Ойеда
В ролях: Корбин Бернсен, Оксана Орлан, Кристина Пименова, Лиза Гудман, Майкл Роберт Брэндон, Элисон Корман, Кинэн Джонстон, Грегори О'Галлахер, Ефим Сомен, Кеннет Г. Боден

Перевод: Профессиональный многоголосый | [HDRezka Studio]
Субтитры: Английские (полные, SDH)
Реклама: Отсутствует

Описание: Мать-одиночка Нина желает переехать в США, чтобы дать своей дочери Даше лучшую жизнь. В интернете она знакомится с Карлом — богатым вдовцом и бывшим пластическим хирургом, готовым обеспечить Нине и Даше безбедное будущее. Вскоре женщина вместе с дочерью прилетает в Америку, где их ожидает новый глава семьи, живущий в роскошном особняке. Несмотря на весьма странную прислугу, Нина, окруженная заботой и лаской Карла, не может нарадоваться чудесными изменениями в своей жизни, совершенно не подозревая о истинных планах коварного супруга...

Качество: WEB-DL 1080p | AMZN Version |
Продолжительность: 01:41:24

Формат: MKV
Видео кодек: MPEG-4 AVC
Аудио кодек: AC3
Видео: 1920x872 (2.2:1), 23,976 fps, x264 ~9 183 kbps avg, 0.229 bit/pixel
Аудио #1: 48 kHz, AC3 Dolby Digital, 2 (L,R) ch, ~192.00 kbps avg | RUS (HDRezka Studio)
Аудио #2: 48 kHz, E-AC3 Dolby Digital Plus, 3/2 (L,C,R,l,r) + LFE ch, ~640.00 kbps avg | ENG

Дата премьеры (мир): 2 марта 2019
Дата премьеры (РФ): 16 мая 2019, «Кинолэнд»
Цифровой релиз:

Релиз:


[+] MediaInfo

Общее
Уникальный идентификатор                 : 181549054436567863161921155882891487547 (0x88951376CC2F2BF337E87BA118C6293B)
Полное имя                               : D:The.Russian.Bride.2019.AMZN.WEB-DL(1080p).OlLanDGroup.mkv
Формат                                   : Matroska
Версия формата                           : Version 4 / Version 2
Размер файла                             : 7,09 Гбайт
Продолжительность                        : 1 ч. 41 м.
Общий поток                              : 10,0 Мбит/сек
Название фильма                          : The.Russian.Bride.2019   #TorpedoUK#
Дата кодирования                         : UTC 2019-04-11 19:24:28
Программа кодирования                    : mkvmerge v29.0.0 ('Like It Or Not') 64-bit
Библиотека кодирования                   : libebml v1.3.6 + libmatroska v1.4.9

Видео
Идентификатор                            : 1
Формат                                   : AVC
Формат/Информация                        : Advanced Video Codec
Профиль формата                          : High@L4
Параметр CABAC формата                   : Да
Параметр ReFrames формата                : 4 кадра
Идентификатор кодека                     : V_MPEG4/ISO/AVC
Продолжительность                        : 1 ч. 41 м.
Вид битрейта                             : Постоянный
Битрейт                                  : 9183 Кбит/сек
Номинальный битрейт                      : 10000 Кбит/сек
Ширина                                   : 1920 пикселей
Высота                                   : 872 пикселя
Соотношение сторон                       : 2,2:1
Соотношение сторон в оригинале           : 2,2:1
Режим частоты кадров                     : Постоянный
Частота кадров                           : 23,976 (24000/1001) кадра/сек
Цветовое пространство                    : YUV
Субдискретизация насыщенности            : 4:2:0
Битовая глубина                          : 8 бит
Тип развёртки                            : Прогрессивная
Бит/(Пиксели*Кадры)                      : 0.229
Размер потока                            : 6,50 Гбайт (92%)
Default                                  : Да
Forced                                   : Нет
Цветовой диапазон                        : Limited
Основные цвета                           : BT.709
Характеристики трансфера                 : BT.709
Коэффициенты матрицы                     : BT.709

Аудио #1
Идентификатор                            : 2
Формат                                   : AC-3
Формат/Информация                        : Audio Coding 3
Расширение режима                        : CM (complete main)
Параметр Endianness формата              : Big
Идентификатор кодека                     : A_AC3
Продолжительность                        : 1 ч. 41 м.
Вид битрейта                             : Постоянный
Битрейт                                  : 192 Кбит/сек
Каналы                                   : 2 канала
Расположение каналов                     : Front: L R
Частота                                  : 48,0 КГц
Частота кадров                           : 31,250 кадров/сек (1536 spf)
Битовая глубина                          : 16 бит
Метод сжатия                             : С потерями
Размер потока                            : 139 Мбайт (2%)
Заголовок                                : MVO [HDRezka Studio]
Язык                                     : Russian
Default                                  : Да
Forced                                   : Нет

Аудио #2
Идентификатор                            : 3
Формат                                   : E-AC-3
Формат/Информация                        : Enhanced Audio Coding 3
Параметр Endianness формата              : Big
Идентификатор кодека                     : A_EAC3
Продолжительность                        : 1 ч. 41 м.
Вид битрейта                             : Постоянный
Битрейт                                  : 640 Кбит/сек
Каналы                                   : 6 каналов
Расположение каналов                     : Front: L C R, Side: L R, LFE
Частота                                  : 48,0 КГц
Частота кадров                           : 187,500 кадров/сек (256 spf)
Метод сжатия                             : С потерями
Размер потока                            : 464 Мбайт (6%)
Заголовок                                : [Original]
Язык                                     : English
Default                                  : Нет
Forced                                   : Нет

Текст #1
Идентификатор                            : 4
Формат                                   : UTF-8
Идентификатор кодека                     : S_TEXT/UTF8
Идентификатор кодека/Информация          : UTF-8 Plain Text
Продолжительность                        : 1 ч. 33 м.
Битрейт                                  : 35 бит/сек
Count of elements                        : 994
Размер потока                            : 24,7 Кбайт (0%)
Заголовок                                : Full
Язык                                     : English
Default                                  : Нет
Forced                                   : Нет

Текст #2
Идентификатор                            : 5
Формат                                   : UTF-8
Идентификатор кодека                     : S_TEXT/UTF8
Идентификатор кодека/Информация          : UTF-8 Plain Text
Продолжительность                        : 1 ч. 37 м.
Битрейт                                  : 45 бит/сек
Count of elements                        : 1440
Размер потока                            : 32,1 Кбайт (0%)
Заголовок                                : SDH
Язык                                     : English
Default                                  : Нет
Forced                                   : Нет



Скриншоты:
[+] Всего файлов в раздаче - 1:
The.Russian.Bride.2019.AMZN.WEB-DL(1080p).OlLanDGroup.mkv7.09 GB

Показать еще раздачи по запросу русская:
2019-03-27 U Русская невеста / The Russian Bride (2019) WEB-DL 1080p | L1 7.14 GB ↑ 81 ↓ 58
2019-03-26 U Русская невеста / The Russian Bride (2019) HDRip-AVC | L1 1.19 GB ↑ 298 ↓ 111
2019-01-02 U Однажды в Америке или чисто русская сказка (2018) WEBRip-AVC от Files-x 2К1.37 GB ↑ 212 ↓ 70
2019-01-02 U Однажды в Америке или Чисто русская сказка (2018) WEBRip 720p от ExKinoRay 2.79 GB ↑ 181 ↓ 51
2019-01-02 U Однажды в Америке или чисто русская сказка (2018) WEBRip от Files-x 1.37 GB ↑ 470 ↓ 102
2019-01-02 U Однажды в Америке, или Чисто русская сказка (2018) WEBRip 1080p от Files-x 4.12 GB ↑ 774 ↓ 304
2019-01-02 U Однажды в Америке или Чисто русская сказка (2018) WEBRip от GeneralFilm 1.45 GB ↑ 1111 ↓ 230

Отзывы
Зарегистрируйтесь чтобы добавить комментарий.
Обратная связь
Copyleft ©