↑↓Torrent.by
Поиск
Логин: Регистрация
Пароль: Восстановить пароль
Загрузка...

Заблудившиеся / Stray (2019) WEB-DLRip | HDRezka Studio

Скачать zabludivshiesya-stray-2019-web-dlrip-hdrezka-studio.torrent
U Магнитная ссылка Размер: 1.45 GB Раздают: 82 Качают: 27 Добавлен: 2019-04-13 07:18:30
Заблудившиеся / Stray (2019) WEB-DLRip | HDRezka Studio

Название: Заблудившиеся
Оригинальное название: Stray
Год выпуска: 2019
Жанр:  Фэнтези, боевик, триллер, криминал
Режиссер: Джо Силл
В ролях: Карен Фукухара, Кристин Вудс, Мияви, Росс Патридж, Такайо Фишер, Саки Миата, Боб Бэнкрофт, Киран Деол, Соня Джексон, Суфьен Эль Халиди

О фильме: Полицейский детектив Стелла Мерфи, работающая в убойном отделе, возвращается из отпуска и приступает к расследованию странного убийства женщины: ее обугленное тело было найдено на заброшенном складе, однако в окрестностях не обнаружили ни единого признака пожара. Вскоре выясняется, что жертва вела тихую жизнь вместе с дочерью-подростком Нори и пожилой матерью. Разговор с последней не приносит желаемого результата, поэтому Стелла решает объединиться с осиротевшей девушкой в попытке собрать больше информации. Ситуация осложняется, когда детектив узнает о том, что Нори обладает сверхъестественной силой.

Выпущено: США, Diablo Entertainment, Engineer
Продолжительность: 01:27:16
Перевод: Профессиональный (многоголосый, закадровый) | HDRezka Studio

Файл
Качество: WEB-DLRip
Формат: AVI
Видео: 704x288 (2.44:1), 23.976 fps, XviD build 73 ~2180 kbps avg, 0.45 bit/pixel
Аудио: 48 kHz, AC3 Dolby Digital, 2/0 (L,R) ch, ~192 kbps
Субтитры: Нет


[+] MediaInfo
Формат                                   : AVI
Формат/Информация                        : Audio Video Interleave
Размер файла                             : 1,45 Гбайт
Продолжительность                        : 1 ч. 27 м.
Общий поток                              : 2382 Кбит/сек
Программа кодирования                    : VirtualDubMod 1.5.10.3
Библиотека кодирования                   : VirtualDubMod build 2550/release

Видео
Идентификатор                            : 0
Формат                                   : MPEG-4 Visual
Профиль формата                          : Advanced Simple@L5
Настройки формата                        : BVOP1 / Custom Matrix
Параметр BVOP формата                    : 1
Параметр QPel формата                    : Нет
Параметр GMC формата                     : Без точки перехода
Параметр матрицы формата                 : Выборочная
Идентификатор кодека                     : XVID
Идентификатор кодека/Подсказка           : XviD
Продолжительность                        : 1 ч. 27 м.
Битрейт                                  : 2180 Кбит/сек
Ширина                                   : 704 пикселя
Высота                                   : 288 пикселей
Соотношение сторон                       : 2,40:1
Частота кадров                           : 23,976 (24000/1001) кадра/сек
Цветовое пространство                    : YUV
Субдискретизация насыщенности            : 4:2:0
Битовая глубина                          : 8 бит
Тип развёртки                            : Прогрессивная
Метод сжатия                             : С потерями
Бит/(Пиксели*Кадры)                      : 0.448
Размер потока                            : 1,33 Гбайт (92%)
Библиотека кодирования                   : XviD 73

Аудио
Идентификатор                            : 1
Формат                                   : AC-3
Формат/Информация                        : Audio Coding 3
Коммерческое название                    : Dolby Digital
Идентификатор кодека                     : 2000
Продолжительность                        : 1 ч. 27 м.
Вид битрейта                             : Постоянный
Битрейт                                  : 192 Кбит/сек
Каналы                                   : 2 канала
Channel layout                           : L R
Частота                                  : 48,0 КГц
Частота кадров                           : 31,250 кадров/сек (1536 SPF)
Битовая глубина                          : 16 бит
Метод сжатия                             : С потерями
Размер потока                            : 120 Мбайт (8%)
Выравнивание                             : Разделение по промежуткам
Продолжительность промежутка             : 42  мс. (1,00 видеокадр)
Время предзагрузки промежутка            : 500  мс.



Скриншоты:
[+] Всего файлов в раздаче - 1:
Заблудившиеся_2019_WEB-DLRip.avi1.45 GB

Похожие раздачи по запросу - заблудившиеся:
2019-04-12 U Заблудившиеся / Stray (2019) WEB-DL 1080p | HDRezka Studio 3.15 GB ↑ 114 ↓ 69
2018-05-01 U Заблудившиеся / Unhinged (2017) WEBRip | L1 1.17 GB ↑ 71 ↓ 41

Отзывы
Зарегистрируйтесь чтобы добавить комментарий.
Обратная связь
Copyleft ©