↑↓Torrent.by
Поиск
Логин: Регистрация
Пароль: Восстановить пароль
Загрузка...

Уральские пельмени - Шубный Приговор [эфир от 12.04] (2019) WEBRip от Portablius

Скачать uralskie-pelmeni-shubnyy-prigovor-efir-ot-12-04-2019-webrip-portablius.torrent
U Магнитная ссылка Размер: 1,012.40 MB Раздают: 426 Качают: 125 Добавлен: 2019-04-13 12:36:18
Уральские пельмени - Шубный Приговор [эфир от 12.04] (2019) WEBRip от Portablius

Название: Уральские пельмени - Шубный Приговор
Год выхода: 2019
Жанр: ТВ-шоу, юмор, сатира, развлекательный
Режиссер: Анастастия Ширина, Леонид Коновалов
В ролях: Дмитрий Брекоткин, Сергей Ершов, Сергей Исаев, Сергей Калугин, Вячеслав Мясников, Александр Попов, Андрей Рожков, Дмитрий Соколов (V), Максим Ярица, Юлия Михалкова, Илана Юрьева, Ксения Корнева

О фильме: Они знают все скамейки возле бутиков. Больше всего они радуются, когда жене есть чего надеть. Смс по их банковским картам для них всегда неожиданность. Они всю жизнь таскают пакеты: из дома с мусором, в дом с женскими вещами. И они точно знают, зачем в природе пушные звери. Они вынесут свой «ШУБНЫЙ ПРИГОВОР»

Страна: Россия
Продолжительность: 01:13:03

Файл
Кодек: XviD
Качество: WEBRip
Видео: 688x384 (1.79:1), 25 fps, XviD build 73 ~1799 kbps avg, 0.27 bit/pixel
Звук: 44.100 kHz, MPEG Layer 3, 2 ch, ~128.00 kbps avg
[+] MediaInfo
General
Complete name               : UP.Shubnyi.Prigovor.2019.WEBRip.Portablius.avi
Format                      : AVI
Format/Info                 : Audio Video Interleave
File size                   : 1 012 MiB
Duration                    : 1 h 13 min
Overall bit rate            : 1 938 kb/s
Writing application         : VirtualDubMod 1.5.10.3 | www.virtualdub-fr.org || (build 2550/release)
Writing library             : VirtualDubMod build 2550/release

Video
ID                          : 0
Format                      : MPEG-4 Visual
Format profile              : Advanced Simple@L5
Format settings             : BVOP1 / Custom Matrix
Format settings, BVOP       : 1
Format settings, QPel       : No
Format settings, GMC        : No warppoints
Format settings, Matrix     : Custom
Codec ID                    : XVID
Codec ID/Hint               : XviD
Duration                    : 1 h 13 min
Bit rate                    : 1 800 kb/s
Width                       : 688 pixels
Height                      : 384 pixels
Display aspect ratio        : 16:9
Frame rate                  : 25.000 FPS
Color space                 : YUV
Chroma subsampling          : 4:2:0
Bit depth                   : 8 bits
Scan type                   : Progressive
Compression mode            : Lossy
Bits/(Pixel*Frame)          : 0.273
Stream size                 : 940 MiB (93%)
Writing library             : XviD 73

Audio
ID                          : 1
Format                      : MPEG Audio
Format version              : Version 1
Format profile              : Layer 3
Codec ID                    : 55
Codec ID/Hint               : MP3
Duration                    : 1 h 13 min
Bit rate mode               : Constant
Bit rate                    : 128 kb/s
Channel(s)                  : 2 channels
Sampling rate               : 44.1 kHz
Frame rate                  : 38.281 FPS (1152 SPF)
Compression mode            : Lossy
Stream size                 : 66.9 MiB (7%)
Alignment                   : Split accross interleaves
Interleave, duration        : 40  ms (1.00 video frame)
Interleave, preload duratio : 500  ms
Writing library             : LAME3.99r
Encoding settings           : -m s -V 4 -q 2 -lowpass 17 -b 128




Скриншоты:
[+] Всего файлов в раздаче - 1:
UP.Shubnyi.Prigovor.2019.WEBRip.Portablius.avi1,012.40 MB

Показать еще раздачи по запросу уральские:
2019-06-12 U Уральские горы / Ural Mountains (2018) WEBRip 2160p 357.14 MB ↑ 41 ↓ 12
2019-04-13 U Уральские Пельмени - Шубный приговор [эфир от 12.04] (2019) WEBRip 720p 1.19 GB ↑ 342 ↓ 81
2019-04-08 U Уральские Пельмени - Муж на Щас [эфир от 05.04] (2019) WEBRip 1080p 2.48 GB ↑ 120 ↓ 47
2019-04-06 U Уральские пельмени - Муж на Щас [эфир от 05.04] (2019) WEBRip от Portablius 1,002.57 MB ↑ 910 ↓ 148
2019-03-19 U Уральские пельмени - Азбука Уральских пельменей - З [эфир от 01.03] (2019) WEBRip 891.38 MB ↑ 254 ↓ 28
2019-03-02 U Уральские пельмени - Азбука Уральских пельменей - З [эфир от 01.03] (2019) WEBRip 1080p 2.36 GB ↑ 188 ↓ 63
2019-02-24 U Уральские пельмени - Азбука Уральских пельменей - Ж [эфир от 22.02] (2019) WEBRip 720p 884.82 MB ↑ 710 ↓ 186

Отзывы
Зарегистрируйтесь чтобы добавить комментарий.
Обратная связь
Copyleft ©