↑↓Torrent.by
Поиск
Логин: Регистрация
Пароль: Восстановить пароль
Загрузка...

Во время грозы / Durante la tormenta / Mirage (2018) WEBRip 1080p от OlLanDGroup | P, L

Скачать vo-vremya-grozy-durante-la-tormenta-mirage-2018-webrip-1080p-ot-ollandgroup-p-l.torrent
U Магнитная ссылка Размер: 5.10 GB Раздают: 163 Качают: 79 Добавлен: 2019-04-13 12:36:54
Во время грозы / Durante la tormenta / Mirage (2018) WEBRip 1080p от OlLanDGroup | P, L

Во время грозы / Durante la tormenta / Mirage

Год выпуска: 2018
Страна: Испания
Производство: Atresmedia Cine, Colosé Producciones, Mirage Studio
Жанр:  Триллер, драма, фэнтези

Режиссёр: Ориол Паоло
В ролях: Адриана Угарте, Чино Дарин, Хавьер Гутьеррес, Альваро Морте, Нора Навас, Микель Фернандес, Клара Сегура, Мима Риера, Айна Клотет, Альберт Перес

Перевод: Профессиональный многоголосый | [HDRezka Studio], Любительский многоголосый | [Alpha Project]
Субтитры: Русские (полные), Испанские (полные), Английские (полные)
Реклама: Отсутствует

Описание: Счастливая женщина Вера с мужем и маленькой дочкой переезжает в новый дом. А там во время сильной грозы происходит смещение временных пластов, в результате чего женщина пытается спасти от гибели мальчика, жившего тут 25 лет назад. Но этот акт доброй воли приводит к тому, что Вера оказывается в изменённом настоящем, в котором супруг её не знает, и её собственная дочь не родилась.

Качество: WEBRip 1080p | NETFLIX Version |
Продолжительность: 02:09:14

Формат: MKV
Видео кодек: MPEG-4 AVC
Аудио кодек: AC3
Видео: 1920x800 (2.40:1), 24,000 fps, x264 ~4 499 kbps avg, 0.122 bit/pixel
Аудио #1: 48 kHz, AC3 Dolby Digital, 2 (L,R) ch, ~192.00 kbps avg | RUS (HDRezka Studio)
Аудио #2: 48 kHz, AC3 Dolby Digital, 2 (L,R) ch, ~192.00 kbps avg | RUS (Alpha Project)
Аудио #3: 48 kHz, AC3 Dolby Digital, 3/2 (L,C,R,l,r) + LFE ch, ~384.00 kbps avg | ESP
Аудио #4: 48 kHz, AC3 Dolby Digital, 3/2 (L,C,R,l,r) + LFE ch, ~384.00 kbps avg | ENG

Дата премьеры (мир): 13 ноября 2018
Дата премьеры (РФ):

Релиз:


[+] MediaInfo

Общее
Уникальный идентификатор                 : 199694817105770131623040651206506405614 (0x963BD2A30A3FC43F944AAE5F85BD5EEE)
Полное имя                               : F:OlLanDGroupDurante.La.Tormenta.2018.NF.WEBRip(1080p).OlLanDGroup.mkv
Формат                                   : Matroska
Версия формата                           : Version 4 / Version 2
Размер файла                             : 5,10 Гбайт
Продолжительность                        : 2 ч. 9 м.
Общий поток                              : 5653 Кбит/сек
Название фильма                          : Durante.La.Tormenta.2018   #TorpedoUK#
Дата кодирования                         : UTC 2019-04-12 23:07:43
Программа кодирования                    : mkvmerge v29.0.0 ('Like It Or Not') 64-bit
Библиотека кодирования                   : libebml v1.3.6 + libmatroska v1.4.9

Видео
Идентификатор                            : 1
Формат                                   : AVC
Формат/Информация                        : Advanced Video Codec
Профиль формата                          : High@L4.1
Параметр CABAC формата                   : Да
Параметр ReFrames формата                : 4 кадра
Идентификатор кодека                     : V_MPEG4/ISO/AVC
Продолжительность                        : 2 ч. 9 м.
Битрейт                                  : 4499 Кбит/сек
Ширина                                   : 1920 пикселей
Высота                                   : 800 пикселей
Соотношение сторон                       : 2,40:1
Режим частоты кадров                     : Постоянный
Частота кадров                           : 24,000 кадра/сек
Цветовое пространство                    : YUV
Субдискретизация насыщенности            : 4:2:0
Битовая глубина                          : 8 бит
Тип развёртки                            : Прогрессивная
Бит/(Пиксели*Кадры)                      : 0.122
Размер потока                            : 4,06 Гбайт (80%)
Библиотека кодирования                   : x264 core 120 r2164 da19765
Настройки программы                      : cabac=1 / ref=3 / deblock=1:-3:-3 / analyse=0x3:0x133 / me=hex / subme=7 / psy=1 / psy_rd=1.01:0.00 / mixed_ref=1 / me_range=16 / chroma_me=1 / trellis=1 / 8x8dct=1 / cqm=0 / deadzone=21,11 / fast_pskip=0 / chroma_qp_offset=-2 / threads=6 / sliced_threads=0 / nr=0 / decimate=1 / interlaced=0 / bluray_compat=0 / constrained_intra=0 / bframes=3 / b_pyramid=2 / b_adapt=2 / b_bias=0 / direct=3 / weightb=1 / open_gop=0 / weightp=2 / keyint=240 / keyint_min=24 / scenecut=40 / intra_refresh=0 / rc_lookahead=50 / rc=2pass / mbtree=1 / bitrate=4499 / ratetol=1.0 / qcomp=0.60 / qpmin=0 / qpmax=69 / qpstep=4 / cplxblur=20.0 / qblur=0.5 / ip_ratio=1.40 / aq=1:0.70
Язык                                     : Spanish
Default                                  : Да
Forced                                   : Нет

Аудио #1
Идентификатор                            : 2
Формат                                   : AC-3
Формат/Информация                        : Audio Coding 3
Расширение режима                        : CM (complete main)
Параметр Endianness формата              : Big
Идентификатор кодека                     : A_AC3
Продолжительность                        : 2 ч. 8 м.
Вид битрейта                             : Постоянный
Битрейт                                  : 192 Кбит/сек
Каналы                                   : 2 канала
Расположение каналов                     : Front: L R
Частота                                  : 48,0 КГц
Частота кадров                           : 31,250 кадров/сек (1536 spf)
Битовая глубина                          : 16 бит
Метод сжатия                             : С потерями
Размер потока                            : 177 Мбайт (3%)
Заголовок                                : MVO [HDRezka Studio]
Язык                                     : Russian
Default                                  : Да
Forced                                   : Нет

Аудио #2
Идентификатор                            : 3
Формат                                   : AC-3
Формат/Информация                        : Audio Coding 3
Расширение режима                        : CM (complete main)
Параметр Endianness формата              : Big
Идентификатор кодека                     : A_AC3
Продолжительность                        : 2 ч. 9 м.
Вид битрейта                             : Постоянный
Битрейт                                  : 192 Кбит/сек
Каналы                                   : 2 канала
Расположение каналов                     : Front: L R
Частота                                  : 48,0 КГц
Частота кадров                           : 31,250 кадров/сек (1536 spf)
Битовая глубина                          : 16 бит
Метод сжатия                             : С потерями
Размер потока                            : 177 Мбайт (3%)
Заголовок                                : LVO [Alpha Project]
Язык                                     : Russian
Default                                  : Нет
Forced                                   : Нет

Аудио #3
Идентификатор                            : 4
Формат                                   : AC-3
Формат/Информация                        : Audio Coding 3
Расширение режима                        : CM (complete main)
Параметр Endianness формата              : Big
Идентификатор кодека                     : A_AC3
Продолжительность                        : 2 ч. 9 м.
Вид битрейта                             : Постоянный
Битрейт                                  : 384 Кбит/сек
Каналы                                   : 6 каналов
Расположение каналов                     : Front: L C R, Side: L R, LFE
Частота                                  : 48,0 КГц
Частота кадров                           : 31,250 кадров/сек (1536 spf)
Битовая глубина                          : 16 бит
Метод сжатия                             : С потерями
Размер потока                            : 355 Мбайт (7%)
Заголовок                                : [Original]
Язык                                     : Spanish
Default                                  : Нет
Forced                                   : Нет

Аудио #4
Идентификатор                            : 5
Формат                                   : AC-3
Формат/Информация                        : Audio Coding 3
Расширение режима                        : CM (complete main)
Параметр Endianness формата              : Big
Идентификатор кодека                     : A_AC3
Продолжительность                        : 2 ч. 9 м.
Вид битрейта                             : Постоянный
Битрейт                                  : 384 Кбит/сек
Каналы                                   : 6 каналов
Расположение каналов                     : Front: L C R, Side: L R, LFE
Частота                                  : 48,0 КГц
Частота кадров                           : 31,250 кадров/сек (1536 spf)
Битовая глубина                          : 16 бит
Метод сжатия                             : С потерями
Размер потока                            : 355 Мбайт (7%)
Язык                                     : English
Default                                  : Нет
Forced                                   : Нет

Текст #1
Идентификатор                            : 6
Формат                                   : UTF-8
Идентификатор кодека                     : S_TEXT/UTF8
Идентификатор кодека/Информация          : UTF-8 Plain Text
Продолжительность                        : 2 ч. 8 м.
Битрейт                                  : 78 бит/сек
Count of elements                        : 1393
Размер потока                            : 74,1 Кбайт (0%)
Язык                                     : Russian
Default                                  : Нет
Forced                                   : Нет

Текст #2
Идентификатор                            : 7
Формат                                   : UTF-8
Идентификатор кодека                     : S_TEXT/UTF8
Идентификатор кодека/Информация          : UTF-8 Plain Text
Продолжительность                        : 2 ч. 0 м.
Битрейт                                  : 55 бит/сек
Count of elements                        : 1275
Размер потока                            : 49,0 Кбайт (0%)
Язык                                     : Spanish
Default                                  : Нет
Forced                                   : Нет

Текст #3
Идентификатор                            : 8
Формат                                   : UTF-8
Идентификатор кодека                     : S_TEXT/UTF8
Идентификатор кодека/Информация          : UTF-8 Plain Text
Продолжительность                        : 2 ч. 1 м.
Битрейт                                  : 46 бит/сек
Count of elements                        : 1391
Размер потока                            : 41,3 Кбайт (0%)
Язык                                     : English
Default                                  : Нет
Forced                                   : Нет



Скриншоты:
[+] Всего файлов в раздаче - 1:
Durante.La.Tormenta.2018.NF.WEBRip(1080p).OlLanDGroup.mkv5.10 GB

Показать еще раздачи по запросу время:
2019-04-14 U Во время грозы / Durante la tormenta (2018) WEB-DRip-AVC | HDRezka Studio 742.75 MB ↑ 64 ↓ 14
2019-04-13 U Во время грозы / Durante la tormenta / Mirage (2018) WEBRip-AVC от OlLanDGroup | HDRezka Studio 1.46 GB ↑ 115 ↓ 49
2019-04-13 U Во время грозы / Durante la tormenta (2018) WEB-DLRip от ExKinoRay | HDRezka Studio 2.08 GB ↑ 131 ↓ 51
2019-04-03 U Во время грозы / Durante la tormenta (2018) WEB-DL 1080p | L 4.93 GB ↑ 201 ↓ 141
2019-04-03 U Время возмездия / Destroyer (2018) WEB-DL 1080p | HDRezka Studio 4.38 GB ↑ 459 ↓ 297
2019-04-03 U Во время грозы / Durante la tormenta (2018) WEB-DLRip | L 1.46 GB ↑ 212 ↓ 54
2019-03-30 U Наше время / Nuestro tiempo (2018) BDRip от MegaPeer | iTunes 1.46 GB ↑ 70 ↓ 33

Отзывы
Зарегистрируйтесь чтобы добавить комментарий.
Обратная связь
Copyleft ©