↑↓Torrent.by
Поиск
Логин: Регистрация
Пароль: Восстановить пароль
Загрузка...

В поисках Стива Маккуина / Finding Steve McQueen (2018) WEB-DLRip | HDRezka Studio

Скачать v-poiskah-stiva-makkuina-finding-steve-mcqueen-2018-web-dlrip-hdrezka-studio.torrent
U Магнитная ссылка Размер: 1.46 GB Раздают: 132 Качают: 30 Добавлен: 2019-04-13 12:37:16
В поисках Стива Маккуина / Finding Steve McQueen (2018) WEB-DLRip | HDRezka Studio

Название: В поисках Стива Маккуина
Оригинальное название: Finding Steve McQueen
Год выпуска: 2018
Жанр:  Криминал, мелодрама
Режиссер: Марк Стивен Джонсон
В ролях: Трэвис Фиммел, Уильям Фихтнер, Рэйчел Тейлор, Форест Уитакер, Лили Рэйб, Джейк Вири, Рис Койро, Джон Финн, Луис Ломбарди, Джоя Либардони

О фильме: Действия фильма происходят в 1972 году накануне очередных выборов президента США. Шайка преступников решает совершить ограбление века и завладеть незаконным предвыборным фондом Ричарда Никсона. На кону оказывается огромная сумма в тридцать миллионов долларов. Чтобы добиться успеха, преступникам необходимо продумать каждый свой шаг, каждое дыхание. Им удается придумать безупречный план, но в момент проведения операции, в дело вмешивается его величество случай и преступники оказываются в очень сложном положении. Теперь они готовы сделать все, чтобы не попасть в руки полиции.

Выпущено: США, AMBI Group, BondIt Media Capital, Identity Films
Продолжительность: 01:31:46
Перевод: Профессиональный (многоголосый, закадровый) | HDRezka Studio

Файл
Качество: WEB-DLRip
Формат: AVI
Видео: 720x384 (1.88:1), 23.976 fps, XviD build 73 ~2069 kbps avg, 0.31 bit/pixel
Аудио: 48 kHz, AC3 Dolby Digital, 2/0 (L,R) ch, ~192 kbps
Субтитры: Нет


[+] MediaInfo
Формат                                   : AVI
Формат/Информация                        : Audio Video Interleave
Размер файла                             : 1,46 Гбайт
Продолжительность                        : 1 ч. 31 м.
Общий поток                              : 2271 Кбит/сек
Программа кодирования                    : VirtualDubMod 1.5.10.3
Библиотека кодирования                   : VirtualDubMod build 2550/release

Видео
Идентификатор                            : 0
Формат                                   : MPEG-4 Visual
Профиль формата                          : Advanced Simple@L5
Настройки формата                        : BVOP1 / Custom Matrix
Параметр BVOP формата                    : 1
Параметр QPel формата                    : Нет
Параметр GMC формата                     : Без точки перехода
Параметр матрицы формата                 : Выборочная
Идентификатор кодека                     : XVID
Идентификатор кодека/Подсказка           : XviD
Продолжительность                        : 1 ч. 31 м.
Битрейт                                  : 2069 Кбит/сек
Ширина                                   : 720 пикселей
Высота                                   : 384 пикселя
Соотношение сторон                       : 1,85:1
Частота кадров                           : 23,976 (24000/1001) кадра/сек
Цветовое пространство                    : YUV
Субдискретизация насыщенности            : 4:2:0
Битовая глубина                          : 8 бит
Тип развёртки                            : Прогрессивная
Метод сжатия                             : С потерями
Бит/(Пиксели*Кадры)                      : 0.312
Размер потока                            : 1,33 Гбайт (91%)
Библиотека кодирования                   : XviD 73

Аудио
Идентификатор                            : 1
Формат                                   : AC-3
Формат/Информация                        : Audio Coding 3
Коммерческое название                    : Dolby Digital
Идентификатор кодека                     : 2000
Продолжительность                        : 1 ч. 31 м.
Вид битрейта                             : Постоянный
Битрейт                                  : 192 Кбит/сек
Каналы                                   : 2 канала
Channel layout                           : L R
Частота                                  : 48,0 КГц
Частота кадров                           : 31,250 кадров/сек (1536 SPF)
Битовая глубина                          : 16 бит
Метод сжатия                             : С потерями
Размер потока                            : 126 Мбайт (8%)
Выравнивание                             : Разделение по промежуткам
Продолжительность промежутка             : 42  мс. (1,00 видеокадр)
Время предзагрузки промежутка            : 500  мс.



Скриншоты:
[+] Всего файлов в раздаче - 1:
В поисках Стива Маккуина_2018_WEB-DLRip.avi1.46 GB

Показать еще раздачи по запросу поисках:
2019-04-12 U В поисках Стива Маккуина / Finding Steve McQueen (2018) WEB-DL 1080p | HDRezka Studio 6.02 GB ↑ 142 ↓ 60
2018-06-29 U В поисках праздника / The Leisure Seeker (2017) HDRip | GreenРай Studio 1.37 GB ↑ 22 ↓ 4
2018-03-03 U Дикарь / Гоген. В поисках рая / Gauguin - Voyage de Tahiti (2017) WEBRip 720p | D | Line 2.51 GB ↑ 296 ↓ 152
2018-02-12 U В поисках Феллини / In Search of Fellini (2017) DVDRip | L1 1.40 GB ↑ 49 ↓ 31
2018-01-09 U В поисках забытой магии / Lost Magic decoded (2012) HDTVRip 720p | P1 2.53 GB ↑ 41 ↓ 14
2018-01-07 U В поисках Галактики / Galaxy Quest (1999) BDRip-AVC от ExKinoRay | P 746.01 MB ↑ 146 ↓ 19
2017-08-05 U Доспехи бога: В поисках сокровищ / Кунг-фу йога / Kung-Fu Yoga / Gong Fu Yu Jia (2017) HDRip от Scarabey | Лицензия 1.45 GB ↑ 604 ↓ 57

Отзывы
Зарегистрируйтесь чтобы добавить комментарий.
Обратная связь
Copyleft ©