↑↓Torrent.by
Поиск
Логин: Регистрация
Пароль: Восстановить пароль
Загрузка...

Во время грозы / Durante la tormenta / Mirage (2018) WEBRip-AVC от OlLanDGroup | HDRezka Studio

Скачать vo-vremya-grozy-durante-la-tormenta-mirage-2018-webrip-avc-ot-ollandgroup-hdrezka-studio.torrent
U Магнитная ссылка Размер: 1.46 GB Раздают: 115 Качают: 49 Добавлен: 2019-04-13 12:37:23
Во время грозы / Durante la tormenta / Mirage (2018) WEBRip-AVC от OlLanDGroup | HDRezka Studio

Во время грозы / Durante la tormenta / Mirage

Год выпуска: 2018
Страна: Испания
Производство: Atresmedia Cine, Colosé Producciones, Mirage Studio
Жанр:  Триллер, драма, фэнтези

Режиссёр: Ориол Паоло
В ролях: Адриана Угарте, Чино Дарин, Хавьер Гутьеррес, Альваро Морте, Нора Навас, Микель Фернандес, Клара Сегура, Мима Риера, Айна Клотет, Альберт Перес

Перевод: Профессиональный многоголосый | [HDRezka Studio]
Субтитры: Русские (полные)
Реклама: Отсутствует

Описание: Счастливая женщина Вера с мужем и маленькой дочкой переезжает в новый дом. А там во время сильной грозы происходит смещение временных пластов, в результате чего женщина пытается спасти от гибели мальчика, жившего тут 25 лет назад. Но этот акт доброй воли приводит к тому, что Вера оказывается в изменённом настоящем, в котором супруг её не знает, и её собственная дочь не родилась.

Качество: WEBRip-AVC | NETFLIX Version |
Продолжительность: 02:09:14

Формат: MKV
Видео кодек: MPEG-4 AVC
Аудио кодек: AC3
Видео: 1024x426 (2.40:1), 24,000 fps, x264 ~1 423 kbps avg, 0.136 bit/pixel
Аудио #1: 48 kHz, AC3 Dolby Digital, 2 (L,R) ch, ~192.00 kbps avg | RUS (HDRezka Studio)

Дата премьеры (мир): 13 ноября 2018
Дата премьеры (РФ):
Цифровой релиз:

Релиз:


[+] MediaInfo

Общее
Уникальный идентификатор                 : 45743369172890687152256216347143860959 (0x2269DA39D13F00627243CD9EB1E872DF)
Полное имя                               : F:OlLanDGroupDurante.La.Tormenta.2018.NF.WEBRip(AVC).OlLanDGroup.mkv
Формат                                   : Matroska
Версия формата                           : Version 4 / Version 2
Размер файла                             : 1,46 Гбайт
Продолжительность                        : 2 ч. 9 м.
Общий поток                              : 1615 Кбит/сек
Название фильма                          : Durante.La.Tormenta.2018   #TorpedoUK#
Дата кодирования                         : UTC 2019-04-12 23:17:20
Программа кодирования                    : mkvmerge v29.0.0 ('Like It Or Not') 64-bit
Библиотека кодирования                   : libebml v1.3.6 + libmatroska v1.4.9

Видео
Идентификатор                            : 1
Формат                                   : AVC
Формат/Информация                        : Advanced Video Codec
Профиль формата                          : High@L4.1
Параметр CABAC формата                   : Да
Параметр ReFrames формата                : 10 кадров
Идентификатор кодека                     : V_MPEG4/ISO/AVC
Продолжительность                        : 2 ч. 9 м.
Битрейт                                  : 1423 Кбит/сек
Ширина                                   : 1024 пикселя
Высота                                   : 426 пикселей
Соотношение сторон                       : 2,40:1
Режим частоты кадров                     : Постоянный
Частота кадров                           : 24,000 кадра/сек
Цветовое пространство                    : YUV
Субдискретизация насыщенности            : 4:2:0
Битовая глубина                          : 8 бит
Тип развёртки                            : Прогрессивная
Бит/(Пиксели*Кадры)                      : 0.136
Размер потока                            : 1,28 Гбайт (88%)
Библиотека кодирования                   : x264 core 146 r2538 121396c
Настройки программы                      : cabac=1 / ref=10 / deblock=1:-2:-3 / analyse=0x3:0x113 / me=umh / subme=10 / psy=1 / psy_rd=0.97:0.05 / mixed_ref=1 / me_range=48 / chroma_me=1 / trellis=2 / 8x8dct=1 / cqm=0 / deadzone=21,11 / fast_pskip=1 / chroma_qp_offset=-3 / threads=6 / lookahead_threads=1 / sliced_threads=0 / nr=0 / decimate=1 / interlaced=0 / bluray_compat=0 / constrained_intra=0 / bframes=11 / b_pyramid=2 / b_adapt=2 / b_bias=0 / direct=3 / weightb=1 / open_gop=0 / weightp=2 / keyint=240 / keyint_min=24 / scenecut=40 / intra_refresh=0 / rc_lookahead=40 / rc=2pass / mbtree=0 / bitrate=1423 / ratetol=1.0 / qcomp=0.60 / qpmin=0 / qpmax=69 / qpstep=4 / cplxblur=20.0 / qblur=0.5 / vbv_maxrate=50000 / vbv_bufsize=62500 / nal_hrd=none / filler=0 / ip_ratio=1.40 / pb_ratio=1.30 / aq=1:1.00
Default                                  : Да
Forced                                   : Нет

Аудио
Идентификатор                            : 2
Формат                                   : AC-3
Формат/Информация                        : Audio Coding 3
Расширение режима                        : CM (complete main)
Параметр Endianness формата              : Big
Идентификатор кодека                     : A_AC3
Продолжительность                        : 2 ч. 8 м.
Вид битрейта                             : Постоянный
Битрейт                                  : 192 Кбит/сек
Каналы                                   : 2 канала
Расположение каналов                     : Front: L R
Частота                                  : 48,0 КГц
Частота кадров                           : 31,250 кадров/сек (1536 spf)
Битовая глубина                          : 16 бит
Метод сжатия                             : С потерями
Размер потока                            : 177 Мбайт (12%)
Заголовок                                : MVO [HDRezka Studio]
Язык                                     : Russian
Default                                  : Да
Forced                                   : Нет

Текст
Идентификатор                            : 3
Формат                                   : UTF-8
Идентификатор кодека                     : S_TEXT/UTF8
Идентификатор кодека/Информация          : UTF-8 Plain Text
Продолжительность                        : 2 ч. 8 м.
Битрейт                                  : 78 бит/сек
Count of elements                        : 1393
Размер потока                            : 74,1 Кбайт (0%)
Заголовок                                : Full
Язык                                     : Russian
Default                                  : Нет
Forced                                   : Нет



Скриншоты:
[+] Всего файлов в раздаче - 1:
Durante.La.Tormenta.2018.NF.WEBRip(AVC).OlLanDGroup.mkv1.46 GB

Показать еще раздачи по запросу время:
2019-04-14 U Во время грозы / Durante la tormenta (2018) WEB-DRip-AVC | HDRezka Studio 742.75 MB ↑ 64 ↓ 14
2019-04-13 U Во время грозы / Durante la tormenta (2018) WEB-DLRip от ExKinoRay | HDRezka Studio 2.08 GB ↑ 131 ↓ 51
2019-04-13 U Во время грозы / Durante la tormenta / Mirage (2018) WEBRip 1080p от OlLanDGroup | P, L 5.10 GB ↑ 163 ↓ 79
2019-04-03 U Во время грозы / Durante la tormenta (2018) WEB-DL 1080p | L 4.93 GB ↑ 201 ↓ 141
2019-04-03 U Время возмездия / Destroyer (2018) WEB-DL 1080p | HDRezka Studio 4.38 GB ↑ 459 ↓ 297
2019-04-03 U Во время грозы / Durante la tormenta (2018) WEB-DLRip | L 1.46 GB ↑ 212 ↓ 54
2019-03-30 U Наше время / Nuestro tiempo (2018) BDRip от MegaPeer | iTunes 1.46 GB ↑ 70 ↓ 33

Отзывы
Зарегистрируйтесь чтобы добавить комментарий.
Обратная связь
Copyleft ©