↑↓Torrent.by
Поиск
Логин: Регистрация
Пароль: Восстановить пароль
Загрузка...

Не состарится / Never Grow Old (2019) WEB-DL 1080p | HDrezka Studio

Скачать ne-sostaritsya-never-grow-old-2019-web-dl-1080p-hdrezka-studio.torrent
U Магнитная ссылка Размер: 3.59 GB Раздают: 93 Качают: 32 Добавлен: 2019-04-14 07:09:16
Не состарится / Never Grow Old (2019) WEB-DL 1080p | HDrezka Studio

Название: Не состарится
Оригинальное название: Never Grow Old
Год выхода: 2019
Жанр:  боевик, триллер, драма, вестерн
Режиссер: Иван Кэвэна / Ivan Kavanagh
В ролях: Эмиль Хирш, Джон Кьюсак, Антония Кэмпбелл-Хьюз, Дэниэл Уэбб, Дебора Франсуа, Пол Рейд, Анн Косенс, Блейк Беррис, Пол Ронан, Тим Ахерн

О фильме:
В небольшой набожный городок прибывает банда убийц и воров и начинает сеять смерть и хаос. В плюсе остаётся только местный гробовщик, хоронящий жертв. Но в итоге он должен решить, что для него важнее — сохранность семьи или деньги.

Страна: Ирландия
Продолжительность: 01:40:12
Перевод: Профессиональный (многоголосый закадровый) HDrezka Studio
Субтитры: Русские (full), английские (full)
Оригинальная аудиодорожка: Английская

Файл
Качество: WEB-DL 1080p
Видео: AVC/H.264, 1908x790, ~4545 Kbps
Аудио #1: AC3, 2 ch, 192 Kbps - Русский
Аудио #2: AC3, 6 ch, 384 Kbps - Английский
[+] M/I
Общее
Уникальный идентификатор                 : 186099403548823299352288882365503144002 (0x8C0170FF1D24BFC38D7D1EAE3F108042)
Полное имя                               : D:NNMНе состаритсяNever Grow Old 2019 1080p-LQ.mkv
Формат                                   : Matroska
Версия формата                           : Version 4
Размер файла                             : 3,59 Гбайт
Продолжительность                        : 1 ч. 40 м.
Общий поток                              : 5222 Кбит/сек
Название фильма                          : For NNMClub
Дата кодирования                         : UTC 2019-04-13 10:19:12
Программа кодирования                    : mkvmerge v6.9.1 ('Blue Panther') 32bit built on Apr 18 2014 18:15:44
Библиотека кодирования                   : libebml v1.3.0 + libmatroska v1.4.1

Видео
Идентификатор                            : 1
Формат                                   : AVC
Формат/Информация                        : Advanced Video Codec
Профиль формата                          : High@L4
Настройки формата                        : CABAC / 5 Ref Frames
Параметр CABAC формата                   : Да
Параметр RefFrames формата               : 5 кадров
Идентификатор кодека                     : V_MPEG4/ISO/AVC
Продолжительность                        : 1 ч. 40 м.
Битрейт                                  : 4545 Кбит/сек
Ширина                                   : 1908 пикселей
Высота                                   : 790 пикселей
Соотношение сторон                       : 2,40:1
Режим частоты кадров                     : Постоянный
Частота кадров                           : 23,976 (24000/1001) кадра/сек
Цветовое пространство                    : YUV
Субдискретизация насыщенности            : 4:2:0
Битовая глубина                          : 8 бит
Тип развёртки                            : Прогрессивная
Бит/(Пиксели*Кадры)                      : 0.123
Размер потока                            : 3,11 Гбайт (87%)
Язык                                     : English
Default                                  : Да
Forced                                   : Нет
Цветовой диапазон                        : Limited
Основные цвета                           : BT.709
Характеристики трансфера                 : BT.709
Коэффициенты матрицы                     : BT.709

Аудио #1
Идентификатор                            : 2
Формат                                   : AC-3
Формат/Информация                        : Audio Coding 3
Коммерческое название                    : Dolby Digital
Идентификатор кодека                     : A_AC3
Продолжительность                        : 1 ч. 40 м.
Вид битрейта                             : Постоянный
Битрейт                                  : 192 Кбит/сек
Каналы                                   : 2 канала
Channel layout                           : L R
Частота                                  : 48,0 КГц
Частота кадров                           : 31,250 кадров/сек (1536 SPF)
Битовая глубина                          : 16 бит
Метод сжатия                             : С потерями
Задержка видео                           : -42 мс.
Размер потока                            : 138 Мбайт (4%)
Заголовок                                : MVO (HDRezka Studio)
Язык                                     : Russian
ServiceKind                     : Complete Main
Default                                  : Да
Forced                                   : Нет

Аудио #2
Идентификатор                            : 3
Формат                                   : AC-3
Формат/Информация                        : Audio Coding 3
Коммерческое название                    : Dolby Digital
Идентификатор кодека                     : A_AC3
Продолжительность                        : 1 ч. 40 м.
Вид битрейта                             : Постоянный
Битрейт                                  : 384 Кбит/сек
Каналы                                   : 6 каналов
Channel layout                           : L R C LFE Ls Rs
Частота                                  : 48,0 КГц
Частота кадров                           : 31,250 кадров/сек (1536 SPF)
Битовая глубина                          : 16 бит
Метод сжатия                             : С потерями
Задержка видео                           : -42 мс.
Размер потока                            : 275 Мбайт (7%)
Заголовок                                : Оригинал
Язык                                     : English
ServiceKind                      : Complete Main
Default                                  : Нет
Forced                                   : Нет

Текст #1
Идентификатор                            : 4
Формат                                   : UTF-8
Идентификатор кодека                     : S_TEXT/UTF8
Идентификатор кодека/Информация          : UTF-8 Plain Text
Заголовок                                : Full
Язык                                     : Russian
Default                                  : Нет
Forced                                   : Нет

Текст #2
Идентификатор                            : 5
Формат                                   : UTF-8
Идентификатор кодека                     : S_TEXT/UTF8
Идентификатор кодека/Информация          : UTF-8 Plain Text
Заголовок                                : Full
Язык                                     : English
Default                                  : Нет
Forced                                   : Нет

Меню
00:00:00.000                             : en:1
00:02:39.000                             : en:2
00:12:49.000                             : en:3
00:23:46.000                             : en:4
00:33:33.000                             : en:5
00:44:04.000                             : en:6
00:54:13.000                             : en:7
01:07:22.000                             : en:8
01:15:37.000                             : en:9
01:22:33.000                             : en:10
01:35:07.000                             : en:11



Скриншоты:
[+] Всего файлов в раздаче - 1:
Never Grow Old 2019 1080p-LQ NNMClub.mkv3.59 GB

Похожие раздачи по запросу - состарится:
2019-04-12 U Не состарится / Never Grow Old (2019) WEB-DLRip от Dalemake | HDrezka Studio 1.45 GB ↑ 104 ↓ 45

Отзывы
Зарегистрируйтесь чтобы добавить комментарий.
Обратная связь
Copyleft ©