↑↓Torrent.by
Поиск
Логин: Регистрация
Пароль: Восстановить пароль
Загрузка...

Во время грозы / Durante la tormenta (2018) WEB-DRip-AVC | HDRezka Studio

Скачать vo-vremya-grozy-durante-la-tormenta-2018-web-drip-avc-hdrezka-studio.torrent
U Магнитная ссылка Размер: 742.75 MB Раздают: 64 Качают: 16 Добавлен: 2019-04-14 07:09:44
Во время грозы / Durante la tormenta (2018) WEB-DRip-AVC | HDRezka Studio

Название: Во время грозы
Оригинальное название: Durante la tormenta
Год выхода: 2018
Жанр:  триллер, драма, фэнтези, детектив
Режиссер: Ориол Паоло
В ролях: Адриана Угарте, Чино Дарин, Хавьер Гутьеррес, Альваро Морте, Нора Навас, Микель Фернандес, Клара Сегура, Мима Риера, Айна Клотет, Альберт Перес

О фильме:
Счастливая женщина Вера с мужем и маленькой дочкой переезжает в новый дом. А там во время сильной грозы происходит смещение временных пластов, в результате чего женщина пытается спасти от гибели мальчика, жившего тут 25 лет назад. Но этот акт доброй воли приводит к тому, что Вера оказывается в изменённом настоящем, в котором супруг её не знает, и её собственная дочь не родилась.

Страна: Испания
Студия: Atresmedia Cine, Colosé Producciones, Mirage Studio, Think Studio
Продолжительность: 02:09:14
Перевод: Профессиональный многоголосый | [HDRezka Studio]
Субтитры: Русские, английские, испанские

Файл
Кодек: x264
Качество: WEB-DRip-AVC
Видео: 744x310, ~739 kb/s, 24.000 fps
Аудио: AAC, ~64 kb/s, 2 ch
Формат субтитров: softsub (SRT)

***Релиз от: -=DoMiNo=-


[+] M/I
x264 info: frame I:1751  Avg QP:10.34  size: 42625
x264 info: frame P:38910 Avg QP:13.68  size:  9559
x264 info: frame B:145443 Avg QP:17.94  size:  1853
x264 info: consecutive B-frames:  1.9%  2.1%  7.8% 17.5% 13.5% 50.1%  3.4%  1.2%  0.7%  0.4%  0.3%  1.1%

General
Unique ID                   : 127046293581801881051030394812515008112 (0x5F9439E28F02AB1A5E98373FC984BE70)
Complete name               : Во время грозы.(2018).WEB-DLRip-AVC.[-=DoMiNo=-].mkv
Format                      : Matroska
Format version              : Version 4
File size                   : 743 MiB
Duration                    : 2 h 9 min
Overall bit rate            : 804 kb/s
Movie name                  : Во время грозы
Encoded date                : UTC 2019-04-13 06:56:29
Writing application         : mkvmerge v32.0.0 ('Astral Progressions') 64-bit
Writing library             : libebml v1.3.7 + libmatroska v1.5.0
Attachments                 : poster

Video
ID                          : 1
Format                      : AVC
Format/Info                 : Advanced Video Codec
Format profile              : High@L4.1
Format settings             : CABAC / 10 Ref Frames
Format settings, CABAC      : Yes
Format settings, ReFrames   : 10 frames
Codec ID                    : V_MPEG4/ISO/AVC
Duration                    : 2 h 9 min
Bit rate                    : 739 kb/s
Width                       : 744 pixels
Height                      : 310 pixels
Display aspect ratio        : 2.40:1
Frame rate mode             : Constant
Frame rate                  : 24.000 FPS
Color space                 : YUV
Chroma subsampling          : 4:2:0
Bit depth                   : 8 bits
Scan type                   : Progressive
Bits/(Pixel*Frame)          : 0.134
Stream size                 : 683 MiB (92%)
Title                       : RIP_BY_-=DoMiNo=-
Writing library             : x264 core 157 r2969 d4099dd
Encoding settings           : cabac=1 / ref=10 / deblock=1:-2:-2 / analyse=0x3:0x133 / me=umh / subme=11 / psy=1 / psy_rd=1.00:0.05 / mixed_ref=1 / me_range=32 / chroma_me=1 / trellis=2 / 8x8dct=1 / cqm=0 / deadzone=21,11 / fast_pskip=1 / chroma_qp_offset=-3 / threads=6 / lookahead_threads=1 / sliced_threads=0 / nr=0 / decimate=1 / interlaced=0 / bluray_compat=0 / constrained_intra=0 / bframes=11 / b_pyramid=2 / b_adapt=2 / b_bias=0 / direct=3 / weightb=1 / open_gop=0 / weightp=2 / keyint=250 / keyint_min=24 / scenecut=40 / intra_refresh=0 / rc_lookahead=180 / rc=2pass / mbtree=1 / bitrate=739 / ratetol=1.0 / qcomp=0.70 / qpmin=0 / qpmax=69 / qpstep=4 / cplxblur=20.0 / qblur=0.5 / vbv_maxrate=50000 / vbv_bufsize=62500 / nal_hrd=none / filler=0 / ip_ratio=1.40 / aq=3:0.90
Language                    : Spanish
Default                     : Yes
Forced                      : No

Audio
ID                          : 2
Format                      : AAC LC SBR
Format/Info                 : Advanced Audio Codec Low Complexity with Spectral Band Replication
Commercial name             : HE-AAC
Format settings             : Explicit
Codec ID                    : A_AAC-2
Duration                    : 2 h 8 min
Bit rate                    : 62.7 kb/s
Channel(s)                  : 2 channels
Channel layout              : L R
Sampling rate               : 48.0 kHz
Frame rate                  : 23.438 FPS (2048 SPF)
Compression mode            : Lossy
Stream size                 : 57.7 MiB (8%)
Title                       : Mvo | [HDRezka Studio]
Language                    : Russian
Default                     : Yes
Forced                      : No

Text #1
ID                          : 3
Format                      : UTF-8
Codec ID                    : S_TEXT/UTF8
Codec ID/Info               : UTF-8 Plain Text
Duration                    : 2 h 8 min
Bit rate                    : 78 b/s
Count of elements           : 1393
Stream size                 : 74.1 KiB (0%)
Language                    : Russian
Default                     : No
Forced                      : No

Text #2
ID                          : 4
Format                      : UTF-8
Codec ID                    : S_TEXT/UTF8
Codec ID/Info               : UTF-8 Plain Text
Duration                    : 2 h 1 min
Bit rate                    : 46 b/s
Count of elements           : 1391
Stream size                 : 41.3 KiB (0%)
Language                    : English
Default                     : No
Forced                      : No

Text #3
ID                          : 5
Format                      : UTF-8
Codec ID                    : S_TEXT/UTF8
Codec ID/Info               : UTF-8 Plain Text
Duration                    : 2 h 0 min
Bit rate                    : 55 b/s
Count of elements           : 1275
Stream size                 : 49.0 KiB (0%)
Language                    : Spanish
Default                     : No
Forced                      : No

Menu
00:00:00.000                : :Глава 1
00:10:38.750                : :Глава 2
00:19:31.292                : :Глава 3
00:27:58.417                : :Глава 4
00:38:02.417                : :Глава 5
00:46:34.375                : :Глава 6
00:57:40.000                : :Глава 7
01:07:13.083                : :Глава 8
01:16:02.458                : :Глава 9
01:26:18.000                : :Глава 10
01:37:08.417                : :Глава 11
01:43:02.792                : :Глава 12
01:45:03.125                : :Глава 13
01:52:25.042                : :Глава 14
02:02:01.542                : :Глава 15



Скриншоты:
[+] Всего файлов в раздаче - 1:
Во время грозы.(2018).WEB-DLRip-AVC.[-=DoMiNo=-].mkv742.75 MB

Показать еще раздачи по запросу время:
2019-06-17 U Время монстров / The Head Hunter (2018) BDRip от Twister & ExKinoRay | iTunes 1.43 GB ↑ 69 ↓ 20
2019-06-15 U Время монстров / The Head Hunter (2018) BDRip-AVC от ExKinoRay | HDRezka Studio 1.32 GB ↑ 37 ↓ 16
2019-06-14 U Время монстров / The Head Hunter (2018) BDRip 720p от селезень | iTunes 4.06 GB ↑ 109 ↓ 28
2019-06-14 U Время монстров / The Head Hunter (2018) BDRip 1080p от селезень | iTunes 7.40 GB ↑ 145 ↓ 43
2019-06-14 U Время монстров / The Head Hunter (2018) BDRip от MegaPeer | iTunes 1.09 GB ↑ 202 ↓ 30
2019-05-17 U Оружие, время, мотив / L'arma, l'ora, il movente (1972) DVDRip | A 1.47 GB ↑ 24 ↓ 16
2019-05-04 U Время возмездия / Destroyer (2018) BDRip от Twister & ExKinoRay | iTunes 1.46 GB ↑ 48 ↓ 12

Отзывы
Зарегистрируйтесь чтобы добавить комментарий.
Обратная связь
Copyleft ©