↑↓Torrent.by
Поиск
Логин: Регистрация
Пароль: Восстановить пароль
Загрузка...

Пираты Сомали / The Pirates of Somalia (2017) BDRip 1080p | iTunes

Скачать piraty-somali-the-pirates-of-somalia-2017-bdrip-1080p-itunes.torrent
U Магнитная ссылка Размер: 8.87 GB Раздают: 166 Качают: 78 Добавлен: 2019-04-15 10:04:53
Пираты Сомали / The Pirates of Somalia (2017) BDRip 1080p | iTunes

Название: Пираты Сомали
Оригинальное название: The Pirates of Somalia
Год выпуска: 2017
Жанр: Драма, биография
Режиссер: Брайан Бакли
В ролях: Аль Пачино, Эван Питерс, Мелани Гриффит, Баркхад Абди, Расселл Познер, Корал Пенья, Киана Мадани, Филип Эттинджер, Эйдан Уайток, Роберт Хоббс

О фильме: В 2008 году мечтающий стать журналистом Джей Бахадур по совету бывалого коллеги едет в Сомали, чтобы написать книгу об этой стране. Никакого конкретного плана у него нет, но, как говорится, новичкам везёт — и вот уже парень жмёт руку президенту страны и берёт интервью у сомалийских пиратов.

Страна: Сомали, Кения, Судан, ЮАР, США
Студия: BCDF Pictures
Продолжительность: 01:57:45
Перевод: Профессиональный (многоголосый, закадровый) | iTunes

Файл
Качество: BDRip 1080p
Контейнер: MKV
Видео: MPEG-4 AVC, 8673 Кбит/с, 1920x800
Аудио 1: Русский: AC3, 6 ch, 384 Кбит/с | MVO, iTunes
Аудио 2: Английский: DTS, 6 ch, 1509 Кбит/с | Original
Субтитры: Финские, английские

Релиз:


[+] MediaInfo
General
Unique ID                   : 192998410791983364129004803239485609215 (0x91322450B281AA8C9F269531CB3394FF)
Complete name               : E:The.Pirates.of.SomaliaThe.Pirates.of.Somalia.2017.P.BDRip.1080p.ELEKTRI4KA.UNIONGANG.mkv
Format                      : Matroska
Format version              : Version 2
File size                   : 8.87 GiB
Duration                    : 1 h 57 min
Overall bit rate            : 10.8 Mb/s
Movie name                  : Пираты Сомали (2017) UNIONGANG
Encoded date                : UTC 2019-04-13 20:35:19
Writing application         : mkvmerge v5.6.0 ('Kenya Kane') built on Jun 29 2012 15:01:44
Writing library             : libebml v1.2.3 + libmatroska v1.3.0

Video
ID                          : 1
Format                      : AVC
Format/Info                 : Advanced Video Codec
Format profile              : High@L4.1
Format settings             : CABAC / 5 Ref Frames
Format settings, CABAC      : Yes
Format settings, ReFrames   : 5 frames
Muxing mode                 : Header stripping
Codec ID                    : V_MPEG4/ISO/AVC
Duration                    : 1 h 57 min
Bit rate                    : 8 673 kb/s
Width                       : 1 920 pixels
Height                      : 800 pixels
Display aspect ratio        : 2.40:1
Frame rate mode             : Constant
Frame rate                  : 23.976 (24000/1001) FPS
Color space                 : YUV
Chroma subsampling          : 4:2:0
Bit depth                   : 8 bits
Scan type                   : Progressive
Bits/(Pixel*Frame)          : 0.235
Stream size                 : 7.13 GiB (80%)
Title                       : Пираты Сомали (2017) BDRip.1080p ELEKTRI4KA
Writing library             : x264 core 152 r2851kMod ba24899
Encoding settings           : cabac=1 / ref=5 / deblock=1:-3:-3 / analyse=0x3:0x133 / me=umh / subme=11 / psy=1 / fade_compensate=0.00 / psy_rd=1.05:0.00 / mixed_ref=1 / me_range=48 / chroma_me=1 / trellis=2 / 8x8dct=1 / cqm=0 / deadzone=21,11 / fast_pskip=0 / chroma_qp_offset=-2 / threads=24 / lookahead_threads=4 / sliced_threads=0 / nr=0 / decimate=0 / interlaced=0 / bluray_compat=0 / constrained_intra=0 / bframes=8 / b_pyramid=2 / b_adapt=2 / b_bias=0 / direct=3 / weightb=1 / open_gop=0 / weightp=2 / keyint=240 / keyint_min=2 / scenecut=40 / intra_refresh=0 / rc=crf / mbtree=0 / crf=17.5000 / qcomp=0.70 / qpmin=0 / qpmax=69 / qpstep=4 / ip_ratio=1.30 / pb_ratio=1.20 / aq=3:0.80
Language                    : English
Default                     : Yes
Forced                      : No

Audio #1
ID                          : 2
Format                      : AC-3
Format/Info                 : Audio Coding 3
Commercial name             : Dolby Digital
Muxing mode                 : Header stripping
Codec ID                    : A_AC3
Duration                    : 1 h 57 min
Bit rate mode               : Constant
Bit rate                    : 384 kb/s
Channel(s)                  : 6 channels
Channel layout              : L R C LFE Ls Rs
Sampling rate               : 48.0 kHz
Frame rate                  : 31.250 FPS (1536 SPF)
Bit depth                   : 16 bits
Compression mode            : Lossy
Stream size                 : 323 MiB (4%)
Title                       : Russian 5.1
Language                    : Russian
Service kind                : Complete Main
Default                     : Yes
Forced                      : No

Audio #2
ID                          : 3
Format                      : DTS
Format/Info                 : Digital Theater Systems
Muxing mode                 : Header stripping
Codec ID                    : A_DTS
Duration                    : 1 h 57 min
Bit rate mode               : Constant
Bit rate                    : 1 509 kb/s
Channel(s)                  : 6 channels
Channel layout              : C L R Ls Rs LFE
Sampling rate               : 48.0 kHz
Frame rate                  : 93.750 FPS (512 SPF)
Bit depth                   : 24 bits
Compression mode            : Lossy
Stream size                 : 1.24 GiB (14%)
Title                       : English DTS 5.1
Language                    : English
Default                     : No
Forced                      : No

Text #1
ID                          : 4
Format                      : UTF-8
Codec ID                    : S_TEXT/UTF8
Codec ID/Info               : UTF-8 Plain Text
Language                    : Finnish
Default                     : No
Forced                      : No

Text #2
ID                          : 5
Format                      : UTF-8
Codec ID                    : S_TEXT/UTF8
Codec ID/Info               : UTF-8 Plain Text
Language                    : English
Default                     : No
Forced                      : No

Text #3
ID                          : 6
Format                      : UTF-8
Codec ID                    : S_TEXT/UTF8
Codec ID/Info               : UTF-8 Plain Text
Title                       : SDH
Language                    : English
Default                     : No
Forced                      : No

Menu
00:00:00.000                : en:1
00:10:05.363                : en:2
00:19:48.363                : en:3
00:31:18.363                : en:4
00:40:50.363                : en:5
00:51:27.363                : en:6
01:01:33.363                : en:7
01:13:19.363                : en:8
01:22:49.363                : en:9
01:34:21.363                : en:10
01:44:53.363                : en:11
01:50:57.363                : en:12



Скриншоты:
[+] Всего файлов в раздаче - 1:
The.Pirates.of.Somalia.2017.P.BDRip.1080p.ELEKTRI4KA.UNIONGANG.mkv8.87 GB

Показать еще раздачи по запросу пираты:
2019-04-15 U Пираты Сомали / The Pirates of Somalia (2017) BDRip от MegaPeer | P 1.41 GB ↑ 108 ↓ 39
2018-05-10 U Пираты Эдельвейса / Edelweisspiraten (2004) DVDRip | А 1К1.37 GB ↑ 94 ↓ 21
2018-02-18 U Пираты Сомали / The Pirates of Somalia (2017) BDRemux 1080p от MediaClub | L 21.22 GB ↑ 58 ↓ 30
2018-02-17 U Пираты Сомали / The Pirates of Somalia (2017) BDRip от MegaPeer | L 1.46 GB ↑ 147 ↓ 63
2018-01-23 U Дирк Гузманн - Ледовые пираты (2018) FB2 1.42 MB ↑ 117 ↓ 3
2018-01-10 U Пираты Сомали / The Pirates of Somalia (2017) WEB-DLRip от Portablius | L 699.42 MB ↑ 143 ↓ 74
2018-01-10 U Пираты Сомали / The Pirates of Somalia (2017) WEB-DLRip-AVC от Kaztorrents | L 1.46 GB ↑ 130 ↓ 101

Отзывы
Зарегистрируйтесь чтобы добавить комментарий.
Обратная связь
Copyleft ©