↑↓Torrent.by
Поиск
Логин: Регистрация
Пароль: Восстановить пароль
Загрузка...

Стекло / Glass (2019) BDRip 720p от селезень | iTunes

Скачать steklo-glass-2019-bdrip-720p-ot-selezen-itunes.torrent
U Магнитная ссылка Размер: 7.15 GB Раздают: 148 Качают: 120 Добавлен: 2019-04-16 01:53:11
Стекло / Glass (2019) BDRip 720p от селезень | iTunes

Название: Стекло
Оригинальное название: Glass
Год выхода: 2019
Жанр: Фантастика, триллер, драма, детектив
Режиссер: М. Найт Шьямалан
В ролях: Джеймс МакЭвой, Брюс Уиллис, Сэмюэл Л. Джексон, Сара Полсон, Аня Тейлор-Джой, Спенсер Трит Кларк, Чарлэйн Вудард, Люк Кирби, Адам Дэвид Томпсон, М. Найт Шьямалан, Шеннон Дестини Райан, Диана Сильверс, Нина Уиснер, Серж Диденко, Джейн Парк Смит, Кайли Зион, Расселл Познер, Кимберли С. Фербенкс

О фильме: В поисках встречи с обладающим фантастическими способностями и снова убивающем девушек Зверем Дэвид Данн выходит на след Кевина Крамба. Но решающая схватка не успевает состояться, героев ловят и отправляют в психиатрическую больницу. Там уже содержится хрупкий человек Элайджа Прайс, несколько лет назад устроивший крушение поезда, единственным выжившем в котором оказался Дэвид. Психиатр Элли Стэйпл пытается убедить этих трёх пациентов, что они не обладают сверхспособностями, и всему можно найти рациональное объяснение

Страна: США
Студия: Walt Disney Pictures, Universal Pictures, Blinding Edge Pictures
Продолжительность: 02:09:01
Перевод: Дублированный | iTunes

Качество: BDRip 720p
Видео: MPEG-4 AVC, 1280x536, 7099 Kbit/s, 23.976 fps
Звук:
Аудио #01: 48 kHz, AC3, 5.1, 384 Kbps | Дублированный | RUS |
Аудио #02: 48 kHz, AC3, 5.1, 448 Kbps | Оригинал |  ENG |
Субтитры: Русские (Forced), английские

Релиз:


[+] MI
General
Unique ID                   : 302365642736951375499508653442129381520 (0xE379812A31FD5CB6C34DD4174F32C890)
Complete name               : D:Video111Glass.2019.D.BDRip.720p.seleZen.mkv
Format                      : Matroska
Format version              : Version 4
File size                   : 7.15 GiB
Duration                    : 2 h 9 min
Overall bit rate            : 7 930 kb/s
Movie name                  : Glass 2019 fron селезень
Encoded date                : UTC 2019-04-15 18:24:28
Writing application         : mkvmerge v32.0.0 ('Astral Progressions') 64-bit
Writing library             : libebml v1.3.7 + libmatroska v1.5.0

Video
ID                          : 1
Format                      : AVC
Format/Info                 : Advanced Video Codec
Format profile              : High@L4.1
Format settings             : CABAC / 12 Ref Frames
Format settings, CABAC      : Yes
Format settings, ReFrames   : 12 frames
Codec ID                    : V_MPEG4/ISO/AVC
Duration                    : 2 h 9 min
Bit rate                    : 7 099 kb/s
Width                       : 1 280 pixels
Height                      : 536 pixels
Display aspect ratio        : 2.40:1
Frame rate mode             : Constant
Frame rate                  : 23.976 (24000/1001) FPS
Color space                 : YUV
Chroma subsampling          : 4:2:0
Bit depth                   : 8 bits
Scan type                   : Progressive
Bits/(Pixel*Frame)          : 0.432
Stream size                 : 6.40 GiB (89%)
Title                       : playHD
Writing library             : x264 core 157 r2935 545de2f
Encoding settings           : cabac=1 / ref=12 / deblock=1:-3:-3 / analyse=0x3:0x133 / me=umh / subme=10 / psy=1 / psy_rd=1.00:0.00 / mixed_ref=1 / me_range=32 / chroma_me=1 / trellis=2 / 8x8dct=1 / cqm=0 / deadzone=21,11 / fast_pskip=0 / chroma_qp_offset=-2 / threads=6 / lookahead_threads=1 / sliced_threads=0 / nr=0 / decimate=0 / interlaced=0 / bluray_compat=0 / constrained_intra=0 / bframes=9 / b_pyramid=2 / b_adapt=2 / b_bias=0 / direct=3 / weightb=1 / open_gop=0 / weightp=2 / keyint=250 / keyint_min=23 / scenecut=40 / intra_refresh=0 / rc=crf / mbtree=0 / crf=14.0 / qcomp=0.60 / qpmin=0 / qpmax=69 / qpstep=4 / ip_ratio=1.30 / pb_ratio=1.20 / aq=3:0.80
Language                    : English
Default                     : Yes
Forced                      : No

Audio #1
ID                          : 2
Format                      : AC-3
Format/Info                 : Audio Coding 3
Commercial name             : Dolby Digital
Codec ID                    : A_AC3
Duration                    : 2 h 9 min
Bit rate mode               : Constant
Bit rate                    : 384 kb/s
Channel(s)                  : 6 channels
Channel layout              : L R C LFE Ls Rs
Sampling rate               : 48.0 kHz
Frame rate                  : 31.250 FPS (1536 SPF)
Bit depth                   : 16 bits
Compression mode            : Lossy
Stream size                 : 355 MiB (5%)
Title                       : iTunes
Language                    : Russian
Service kind                : Complete Main
Default                     : Yes
Forced                      : Yes

Audio #2
ID                          : 3
Format                      : AC-3
Format/Info                 : Audio Coding 3
Commercial name             : Dolby Digital
Codec ID                    : A_AC3
Duration                    : 2 h 9 min
Bit rate mode               : Constant
Bit rate                    : 448 kb/s
Channel(s)                  : 6 channels
Channel layout              : L R C LFE Ls Rs
Sampling rate               : 48.0 kHz
Frame rate                  : 31.250 FPS (1536 SPF)
Bit depth                   : 16 bits
Compression mode            : Lossy
Stream size                 : 413 MiB (6%)
Title                       : Original
Language                    : English
Service kind                : Complete Main
Default                     : No
Forced                      : No

Text #1
ID                          : 4
Format                      : UTF-8
Codec ID                    : S_TEXT/UTF8
Codec ID/Info               : UTF-8 Plain Text
Duration                    : 1 h 49 min
Bit rate                    : 1 b/s
Count of elements           : 28
Stream size                 : 1.60 KiB (0%)
Title                       : Forced
Language                    : Russian
Default                     : Yes
Forced                      : Yes

Text #2
ID                          : 5
Format                      : UTF-8
Codec ID                    : S_TEXT/UTF8
Codec ID/Info               : UTF-8 Plain Text
Duration                    : 2 h 1 min
Bit rate                    : 43 b/s
Count of elements           : 1201
Stream size                 : 38.8 KiB (0%)
Title                       : Full
Language                    : English
Default                     : No
Forced                      : No

Text #3
ID                          : 6
Format                      : UTF-8
Codec ID                    : S_TEXT/UTF8
Codec ID/Info               : UTF-8 Plain Text
Duration                    : 2 h 2 min
Bit rate                    : 52 b/s
Count of elements           : 1565
Stream size                 : 46.8 KiB (0%)
Title                       : SDH
Language                    : English
Default                     : No
Forced                      : No

Menu
00:00:00.000                : :绗?01 绔?
00:04:08.457                : :绗?02 绔?
00:09:36.367                : :绗?03 绔?
00:14:30.078                : :绗?04 绔?
00:19:49.897                : :绗?05 绔?
00:24:41.063                : :绗?06 绔?
00:29:45.826                : :绗?07 绔?
00:35:00.598                : :绗?08 绔?
00:39:07.595                : :绗?09 绔?
00:47:28.220                : :绗?10 绔?
00:57:16.224                : :绗?11 绔?
01:02:55.271                : :绗?12 绔?
01:09:26.829                : :绗?13 绔?
01:14:30.299                : :绗?14 绔?
01:21:43.774                : :绗?15 绔?
01:30:10.530                : :绗?16 绔?
01:38:15.515                : :绗?17 绔?
01:44:08.742                : :绗?18 绔?
01:54:07.215                : :绗?19 绔?
02:03:00.290                : :绗?20 绔?



Скриншоты:
[+] Всего файлов в раздаче - 1:
Glass.2019.D.BDRip.720p.seleZen.mkv7.15 GB

Показать еще раздачи по запросу стекло:
2019-07-09 U Стекло / Glass (2019) BDRip от MegaPeer | iTunes 2.13 GB ↑ 59 ↓ 4
2019-07-09 U Стекло / Glass (2019) BDRip от MegaPeer | iTunes 1.46 GB ↑ 131 ↓ 2
2019-04-20 U Стекло / Glass (2019) BDRip от MegaPeer | iTunes 1.46 GB ↑ 125 ↓ 20
2019-04-20 U Стекло / Glass (2019) BDRip от MegaPeer | iTunes 2.13 GB ↑ 58 ↓ 12
2019-04-18 U Стекло / Glass (2019) BDRip 720p от Scarabey | iTunes 5.30 GB ↑ 59 ↓ 23
2019-04-18 U Стекло / Glass (2019) HDRip от Scarabey | iTunes 1.48 GB ↑ 150 ↓ 19
2019-04-17 U Стекло / Glass (2019) BDRip-AVC от HELLYWOOD | iTunes 1.41 GB ↑ 173 ↓ 96

Отзывы
Зарегистрируйтесь чтобы добавить комментарий.
Обратная связь
Copyleft ©