↑↓Torrent.by
Поиск
Логин: Регистрация
Пароль: Восстановить пароль
Загрузка...

Лос-Анджелес в огне / Kings (2017) BDRip 1080p от селезень | Лицензия

Скачать los-andzheles-v-ogne-kings-2017-bdrip-1080p-ot-selezen-licenziya.torrent
U Магнитная ссылка Размер: 8.05 GB Раздают: 45 Качают: 29 Добавлен: 2019-04-16 01:54:08
Лос-Анджелес в огне / Kings (2017) BDRip 1080p от селезень | Лицензия

Название: Лос-Анджелес в огне
Оригинальное название: Kings
Год выхода: 2017
Жанр: Триллер, драма, мелодрама, криминал
Режиссер: Дениз Гамзе Эргювен
В ролях: Холли Берри, Дэниэл Крэйг, Ламар Джонсон, Каалан Рашад Уокер, Рэйчел Хилсон, Иссак Райан Браун, Каллэн Фаррис, Серенити Рейн Браун, Рис Коуди, Эйден Акпан

О фильме: После того, как весной 1991 года суд Лос-Анджелеса оправдал четырех полицейских, жестоко избивших чернокожего таксиста Родни Кинга, в городе начались массовые беспорядки. Один из немногих белых жителей Южного Централа Оби помогает своей подруге Милли защитить ее приемных детей от насилия, царящего на улицах города.

Страна: Франция, Бельгия
Студия: Barnstormer Productions, Bliss Media, CG Cinéma
Продолжительность: 01:29:23
Перевод: Дублированный | Лицензия R5

Качество: BDRip 1080p
Видео: MPEG-4 AVC, 1920x804, 11.8 Mbit/s, 23.976 fps
Звук:
Аудио #01: 48 kHz, AC3, 5.1, 384 Kbps | Дублированный | RUS |
Аудио #02: 48 kHz, DTS, 5.1, 768 Kbps | Оригинал |  ENG |

Релиз:


[+] MI
General
Unique ID                   : 100445199626703780167195030306674436348 (0x4B910AB1A45BFAC892123252867FE8FC)
Complete name               : D:Video111Kings.2017.BDRip.1080p.seleZen.mkv
Format                      : Matroska
Format version              : Version 4
File size                   : 8.05 GiB
Duration                    : 1 h 29 min
Overall bit rate            : 12.9 Mb/s
Movie name                  : Kings 2017 from селезень
Encoded date                : UTC 2019-04-15 13:27:53
Writing application         : mkvmerge v32.0.0 ('Astral Progressions') 64-bit
Writing library             : libebml v1.3.7 + libmatroska v1.5.0

Video
ID                          : 1
Format                      : AVC
Format/Info                 : Advanced Video Codec
Format profile              : High@L4.1
Format settings             : CABAC / 5 Ref Frames
Format settings, CABAC      : Yes
Format settings, ReFrames   : 5 frames
Codec ID                    : V_MPEG4/ISO/AVC
Duration                    : 1 h 29 min
Bit rate                    : 11.8 Mb/s
Width                       : 1 920 pixels
Height                      : 804 pixels
Display aspect ratio        : 2.40:1
Frame rate mode             : Constant
Frame rate                  : 23.976 (24000/1001) FPS
Color space                 : YUV
Chroma subsampling          : 4:2:0
Bit depth                   : 8 bits
Scan type                   : Progressive
Bits/(Pixel*Frame)          : 0.318
Stream size                 : 7.34 GiB (91%)
Title                       : HDH
Writing library             : x264 core 142 r2431+42 c69a006 tMod [8-bit@4:2:0 X86_64]
Encoding settings           : cabac=1 / ref=5 / deblock=1:-3:-3 / analyse=0x3:0x113 / me=umh / subme=10 / psy=1 / fade_compensate=0.00 / psy_rd=1.00:0.05 / mixed_ref=1 / me_range=48 / chroma_me=1 / trellis=2 / 8x8dct=1 / cqm=0 / deadzone=21,11 / fast_pskip=0 / chroma_qp_offset=-2 / threads=48 / lookahead_threads=6 / sliced_threads=0 / nr=0 / decimate=1 / interlaced=0 / bluray_compat=0 / constrained_intra=0 / fgo=0 / bframes=8 / b_pyramid=2 / b_adapt=2 / b_bias=0 / direct=3 / weightb=1 / open_gop=0 / weightp=2 / keyint=250 / keyint_min=23 / scenecut=40 / intra_refresh=0 / rc_lookahead=40 / rc=crf / mbtree=0 / crf=18.1000 / qcomp=0.60 / qpmin=0:0:0 / qpmax=69:69:69 / qpstep=4 / vbv_maxrate=40000 / vbv_bufsize=30000 / crf_max=0.0 / nal_hrd=none / filler=0 / ip_ratio=1.40 / pb_ratio=1.30 / aq=3:0.80 / aq-sensitivity=10.00 / aq-factor=1.00:1.00:1.00 / aq2=0 / aq3=0
Language                    : English
Default                     : Yes
Forced                      : No
Color range                 : Limited
Matrix coefficients         : BT.709

Audio #1
ID                          : 2
Format                      : AC-3
Format/Info                 : Audio Coding 3
Commercial name             : Dolby Digital
Codec ID                    : A_AC3
Duration                    : 1 h 26 min
Bit rate mode               : Constant
Bit rate                    : 384 kb/s
Channel(s)                  : 6 channels
Channel layout              : L R C LFE Ls Rs
Sampling rate               : 48.0 kHz
Frame rate                  : 31.250 FPS (1536 SPF)
Bit depth                   : 16 bits
Compression mode            : Lossy
Stream size                 : 239 MiB (3%)
Title                       : R5
Language                    : Russian
Service kind                : Complete Main
Default                     : Yes
Forced                      : Yes

Audio #2
ID                          : 3
Format                      : DTS
Format/Info                 : Digital Theater Systems
Codec ID                    : A_DTS
Duration                    : 1 h 29 min
Bit rate mode               : Constant
Bit rate                    : 768 kb/s
Channel(s)                  : 6 channels
Channel layout              : C L R Ls Rs LFE
Sampling rate               : 48.0 kHz
Frame rate                  : 93.750 FPS (512 SPF)
Bit depth                   : 24 bits
Compression mode            : Lossy
Stream size                 : 491 MiB (6%)
Title                       : Original
Language                    : English
Default                     : No
Forced                      : No

Menu
00:05:28.435                : en:00:05:28.435
00:11:33.716                : en:00:11:33.716
00:19:10.256                : en:00:19:10.256
00:25:31.470                : en:00:25:31.470
00:32:22.838                : en:00:32:22.838
00:39:15.210                : en:00:39:15.210
00:46:45.784                : en:00:46:45.784
00:53:41.617                : en:00:53:41.617
01:00:17.846                : en:01:00:17.846
01:07:19.350                : en:01:07:19.350
01:14:58.893                : en:01:14:58.893
01:24:28.170                : en:01:24:28.170



Скриншоты:
[+] Всего файлов в раздаче - 1:
Kings.2017.BDRip.1080p.seleZen.mkv8.05 GB

Показать еще раздачи по запросу анджелес:
2019-04-16 U Лос-Анджелес в огне / Kings (2017) BDRip от MegaPeer | Лицензия 1.46 GB ↑ 133 ↓ 48
2019-01-28 U Лос-Анджелес / Los Angeles (2018) WEBRip 1440p 659.32 MB ↑ 21 ↓ 9
2018-07-31 U Лос-Анджелес в огне / Kings (2017) BDRip от MegaPeer | HDRezka Studio 1К744.84 MB ↑ 24 ↓ 10
2018-07-30 U Лос-Анджелес в огне / Kings (2017) BDRip от MegaPeer | HDRezka Studio 1.46 GB ↑ 32 ↓ 19
2018-07-26 U Лос-Анджелес в огне / Kings (2017) WEB-DLRip от MegaPeer | HDRezka Studio 744.54 MB ↑ 58 ↓ 17
2018-07-26 U Лос-Анджелес в огне / Kings (2017) WEB-DLRip от MegaPeer | HDRezka Studio 1.46 GB ↑ 98 ↓ 32
2018-07-25 U Лос-Анджелес в огне / Kings (2017) WEB-DLRip-AVC от OlLanDGroup | HDRezka Studio 1.46 GB ↑ 243 ↓ 39

Отзывы
Зарегистрируйтесь чтобы добавить комментарий.
Обратная связь
Copyleft ©