↑↓Torrent.by
Поиск
Логин: Регистрация
Пароль: Восстановить пароль
Загрузка...

Стекло / Glass (2019) BDRemux 1080p от селезень | iTunes

Скачать steklo-glass-2019-bdremux-1080p-ot-selezen-itunes.torrent
U Магнитная ссылка Размер: 31.11 GB Раздают: 52 Качают: 71 Добавлен: 2019-04-16 10:01:00
Стекло / Glass (2019) BDRemux 1080p от селезень | iTunes

Название: Стекло
Оригинальное название: Glass
Год выхода: 2019
Жанр: Фантастика, триллер, драма, детектив
Режиссер: М. Найт Шьямалан
В ролях: Джеймс МакЭвой, Брюс Уиллис, Сэмюэл Л. Джексон, Сара Полсон, Аня Тейлор-Джой, Спенсер Трит Кларк, Чарлэйн Вудард, Люк Кирби, Адам Дэвид Томпсон, М. Найт Шьямалан, Шеннон Дестини Райан, Диана Сильверс, Нина Уиснер, Серж Диденко, Джейн Парк Смит, Кайли Зион, Расселл Познер, Кимберли С. Фербенкс

О фильме: В поисках встречи с обладающим фантастическими способностями и снова убивающем девушек Зверем Дэвид Данн выходит на след Кевина Крамба. Но решающая схватка не успевает состояться, героев ловят и отправляют в психиатрическую больницу. Там уже содержится хрупкий человек Элайджа Прайс, несколько лет назад устроивший крушение поезда, единственным выжившем в котором оказался Дэвид. Психиатр Элли Стэйпл пытается убедить этих трёх пациентов, что они не обладают сверхспособностями, и всему можно найти рациональное объяснение

Страна: США
Студия: Walt Disney Pictures, Universal Pictures, Blinding Edge Pictures
Продолжительность: 02:09:01
Перевод: Дублированный | iTunes

Качество: BDRemux 1080p
Видео: MPEG-4 AVC, 1920x1080, 29.5 Mbit/s, 23.976 fps
Звук:
Аудио #01: 48 kHz, AC3, 5.1, 384 Kbps | Дублированный | RUS |
Аудио #02: 48 kHz, TrueHD, 7.1, 4109 Kbps | Оригинал |  ENG |
Аудио #03: 48 kHz, AC3, 5.1, 448 Kbps | Оригинал |  ENG |
Субтитры: Русские (Forced), английские

Релиз:


[+] MI
General
Unique ID                   : 303549865546132734836378058329951163338 (0xE45D93DB6E574424BEE89361526DD3CA)
Complete name               : D:Video111Glass.2019.D.BDREMUX.1080p.seleZen.mkv
Format                      : Matroska
Format version              : Version 4
File size                   : 31.1 GiB
Duration                    : 2 h 9 min
Overall bit rate mode       : Variable
Overall bit rate            : 34.5 Mb/s
Movie name                  : Glass 2019 from селезень
Encoded date                : UTC 2019-04-15 18:36:54
Writing application         : mkvmerge v32.0.0 ('Astral Progressions') 64-bit
Writing library             : libebml v1.3.7 + libmatroska v1.5.0

Video
ID                          : 1
Format                      : AVC
Format/Info                 : Advanced Video Codec
Format profile              : High@L4.1
Format settings             : CABAC / 4 Ref Frames
Format settings, CABAC      : Yes
Format settings, ReFrames   : 4 frames
Codec ID                    : V_MPEG4/ISO/AVC
Duration                    : 2 h 9 min
Bit rate mode               : Variable
Bit rate                    : 29.5 Mb/s
Maximum bit rate            : 38.6 Mb/s
Width                       : 1 920 pixels
Height                      : 1 080 pixels
Display aspect ratio        : 16:9
Frame rate mode             : Constant
Frame rate                  : 23.976 (24000/1001) FPS
Color space                 : YUV
Chroma subsampling          : 4:2:0
Bit depth                   : 8 bits
Scan type                   : Progressive
Bits/(Pixel*Frame)          : 0.593
Stream size                 : 26.6 GiB (85%)
Language                    : English
Default                     : Yes
Forced                      : No

Audio #1
ID                          : 2
Format                      : AC-3
Format/Info                 : Audio Coding 3
Commercial name             : Dolby Digital
Codec ID                    : A_AC3
Duration                    : 2 h 9 min
Bit rate mode               : Constant
Bit rate                    : 384 kb/s
Channel(s)                  : 6 channels
Channel layout              : L R C LFE Ls Rs
Sampling rate               : 48.0 kHz
Frame rate                  : 31.250 FPS (1536 SPF)
Bit depth                   : 16 bits
Compression mode            : Lossy
Stream size                 : 355 MiB (1%)
Title                       : iTunes
Language                    : Russian
Service kind                : Complete Main
Default                     : Yes
Forced                      : Yes

Audio #2
ID                          : 3
Format                      : MLP FBA 16-ch
Format/Info                 : Meridian Lossless Packing FBA with 16-channel presentation
Commercial name             : Dolby TrueHD with Dolby Atmos
Codec ID                    : A_TRUEHD
Duration                    : 2 h 9 min
Bit rate mode               : Variable
Bit rate                    : 4 109 kb/s
Maximum bit rate            : 7 326 kb/s
Channel(s)                  : 8 channels
Channel layout              : L R C LFE Ls Rs Lb Rb
Sampling rate               : 48.0 kHz
Frame rate                  : 1 200.000 FPS (40 SPF)
Compression mode            : Lossless
Stream size                 : 3.70 GiB (12%)
Title                       : Original
Language                    : English
Default                     : No
Forced                      : No
Number of dynamic objects   : 11
Bed channel count           : 1 channel
Bed channel configuration   : LFE

Audio #3
ID                          : 4
Format                      : AC-3
Format/Info                 : Audio Coding 3
Commercial name             : Dolby Digital
Codec ID                    : A_AC3
Duration                    : 2 h 9 min
Bit rate mode               : Constant
Bit rate                    : 448 kb/s
Channel(s)                  : 6 channels
Channel layout              : L R C LFE Ls Rs
Sampling rate               : 48.0 kHz
Frame rate                  : 31.250 FPS (1536 SPF)
Bit depth                   : 16 bits
Compression mode            : Lossy
Stream size                 : 413 MiB (1%)
Language                    : English
Service kind                : Complete Main
Default                     : No
Forced                      : No

Text #1
ID                          : 5
Format                      : UTF-8
Codec ID                    : S_TEXT/UTF8
Codec ID/Info               : UTF-8 Plain Text
Duration                    : 1 h 49 min
Bit rate                    : 1 b/s
Count of elements           : 28
Stream size                 : 1.60 KiB (0%)
Title                       : Forced
Language                    : Russian
Default                     : Yes
Forced                      : Yes

Text #2
ID                          : 6
Format                      : UTF-8
Codec ID                    : S_TEXT/UTF8
Codec ID/Info               : UTF-8 Plain Text
Duration                    : 2 h 1 min
Bit rate                    : 43 b/s
Count of elements           : 1201
Stream size                 : 38.8 KiB (0%)
Title                       : Full
Language                    : English
Default                     : No
Forced                      : No

Text #3
ID                          : 7
Format                      : UTF-8
Codec ID                    : S_TEXT/UTF8
Codec ID/Info               : UTF-8 Plain Text
Duration                    : 2 h 2 min
Bit rate                    : 52 b/s
Count of elements           : 1565
Stream size                 : 46.8 KiB (0%)
Title                       : SDH
Language                    : English
Default                     : No
Forced                      : No

Menu
00:00:00.000                : en:Глава 01
00:04:08.457                : en:Глава 02
00:09:36.367                : en:Глава 03
00:14:30.078                : en:Глава 04
00:19:49.897                : en:Глава 05
00:24:41.063                : en:Глава 06
00:29:45.826                : en:Глава 07
00:35:00.598                : en:Глава 08
00:39:07.595                : en:Глава 09
00:47:28.220                : en:Глава 10
00:57:16.224                : en:Глава 11
01:02:55.271                : en:Глава 12
01:09:26.829                : en:Глава 13
01:14:30.299                : en:Глава 14
01:21:43.774                : en:Глава 15
01:30:10.530                : en:Глава 16
01:38:15.515                : en:Глава 17
01:44:08.742                : en:Глава 18
01:54:07.215                : en:Глава 19
02:03:00.290                : en:Глава 20



Скриншоты:
[+] Всего файлов в раздаче - 1:
Glass.2019.D.BDREMUX.1080p.seleZen.mkv31.11 GB

Показать еще раздачи по запросу стекло:
2019-07-09 U Стекло / Glass (2019) BDRip от MegaPeer | iTunes 2.13 GB ↑ 59 ↓ 4
2019-07-09 U Стекло / Glass (2019) BDRip от MegaPeer | iTunes 1.46 GB ↑ 131 ↓ 2
2019-04-20 U Стекло / Glass (2019) BDRip от MegaPeer | iTunes 1.46 GB ↑ 125 ↓ 20
2019-04-20 U Стекло / Glass (2019) BDRip от MegaPeer | iTunes 2.13 GB ↑ 58 ↓ 12
2019-04-18 U Стекло / Glass (2019) BDRip 720p от Scarabey | iTunes 5.30 GB ↑ 59 ↓ 23
2019-04-18 U Стекло / Glass (2019) HDRip от Scarabey | iTunes 1.48 GB ↑ 150 ↓ 19
2019-04-17 U Стекло / Glass (2019) BDRip-AVC от HELLYWOOD | iTunes 1.41 GB ↑ 173 ↓ 96

Отзывы
Зарегистрируйтесь чтобы добавить комментарий.
Обратная связь
Copyleft ©