↑↓Torrent.by
Поиск
Логин: Регистрация
Пароль: Восстановить пароль
Загрузка...

Семья по-быстрому / Instant Family (2018) BDRip 1080p | HDRezka Studio

Скачать semya-po-bystromu-instant-family-2018-bdrip-1080p-hdrezka-studio.torrent
U Магнитная ссылка Размер: 9.35 GB Раздают: 151 Качают: 121 Добавлен: 2019-04-16 17:32:56
Семья по-быстрому / Instant Family (2018) BDRip 1080p | HDRezka Studio

Название: Семья по-быстрому
Оригинальное название: Instant Family
Год выхода: 2018
Жанр: Драма, комедия
Режиссер: Шон Андерс
В ролях: Марк Уолберг, Роуз Бирн, Изабела Монер, Густаво Куирос мл., Джулианна Гамиз, Октавия Спенсер, Тиг Нотаро, Том Сегура, Эллин Рэйчел, Бритт Рентшлер

О фильме:
Пит и Эмили совершенно недавно переехали в новый большой дом. Непонятно только зачем они покупали такой большой – пять спален двоим людям явно слишком много. Детей у них нет, да и не похожи они на тех, кто собирается завести мальчика или девочку. Но Пит и Эмили всё-таки решились на этот ответственный шаг – они усыновят или удочерят кого-то. В их городе как раз проходит ярмарка сирот, где можно познакомиться с детками без родителей. Именно там пара нашла 15-летнюю девочку-подростка по имени Лиззи. Её-то они и решили взять к себе. Только вот у неё есть младшие брат и сестра, а семью лучше не разрушать. Вот так у Пита и Эмили за один день стало трое детей. Они совершенно разные, каждый привносит свои проблемы, но именно эти дети делают домашний уют. Питу и Эмили придется много потрудиться, чтобы стать настоящими родителями для этих детей.

Страна: США
Студия: Paramount Pictures
Продолжительность: 01:58:05
Перевод: Профессиональный многоголосый | HDRezka Studio

Файл
Кодек: x.264
Качество: BDRip 1080p
Видео: MPEG-4 AVC, 9500 Кбит/с, 1920x800, 23.976 кадр/с
Аудио #1: Русский (АС3, 2ch, 192 Кбит/с, 48.0 KHz) Профессиональный (многоголосый, закадровый) HDRezka Studio
Аудио #2: Английский (DTS, 6ch, 1509 Кбит/с, 48.0 KHz)
Субтитры: Aнглийские (*srt), испанские, французские, португальские (*pgs)
Трейлер




[+] MediaInfo
Источник: Instant.Family.2018.1080p.BluRay.REMUX.AVC.DTS-HD.MA.7.1-FGT
General
Unique ID                      : 237263872018380171239082413294245568892 (0xB27F5C0DB4E2DF6DB138D35C9F82E17C)
Complete name                  : Instant.Family.2018.BDRip.1080p.mkv
Format                         : Matroska
Format version                 : Version 4 / Version 2
File size                      : 9.35 GiB
Duration                       : 1 h 58 min
Overall bit rate               : 11.3 Mb/s
Encoded date                   : UTC 2019-04-16 00:27:23
Writing application            : mkvmerge v7.1.0 ('Good Love') 64bit built on Jul 27 2014 13:06:55
Writing library                : libebml v1.3.0 + libmatroska v1.4.1

Video
ID                             : 1
Format                         : AVC
Format/Info                    : Advanced Video Codec
Format profile                 : High@L4.1
Format settings, CABAC         : Yes
Format settings, RefFrames     : 5 frames
Codec ID                       : V_MPEG4/ISO/AVC
Duration                       : 1 h 58 min
Bit rate                       : 9 500 kb/s
Width                          : 1 920 pixels
Height                         : 800 pixels
Display aspect ratio           : 2.40:1
Frame rate mode                : Constant
Frame rate                     : 23.976 (24000/1001) FPS
Color space                    : YUV
Chroma subsampling             : 4:2:0
Bit depth                      : 8 bits
Scan type                      : Progressive
Bits/(Pixel*Frame)             : 0.258
Stream size                    : 7.83 GiB (84%)
Writing library                : x264 core 148 r2638 7599210
Encoding settings              : cabac=1 / ref=5 / deblock=1:-3:-3 / analyse=0x3:0x133 / me=umh / subme=11 / psy=1 / psy_rd=1.00:0.20 / mixed_ref=1 / me_range=48 / chroma_me=1 / trellis=2 / 8x8dct=1 / cqm=0 / deadzone=21,11 / fast_pskip=1 / chroma_qp_offset=-3 / threads=6 / lookahead_threads=1 / sliced_threads=0 / nr=0 / decimate=1 / interlaced=0 / bluray_compat=0 / constrained_intra=0 / bframes=10 / b_pyramid=2 / b_adapt=2 / b_bias=0 / direct=3 / weightb=1 / open_gop=0 / weightp=2 / keyint=250 / keyint_min=23 / scenecut=40 / intra_refresh=0 / rc_lookahead=60 / rc=2pass / mbtree=1 / bitrate=9500 / ratetol=1.0 / qcomp=0.60 / qpmin=0 / qpmax=69 / qpstep=4 / cplxblur=20.0 / qblur=0.5 / ip_ratio=1.40 / aq=1:1.00
Language                       : English
Default                        : Yes
Forced                         : No

Audio #1
ID                             : 2
Format                         : AC-3
Format/Info                    : Audio Coding 3
Format settings, Endianness    : Big
Codec ID                       : A_AC3
Duration                       : 1 h 58 min
Bit rate mode                  : Constant
Bit rate                       : 192 kb/s
Channel(s)                     : 2 channels
Channel positions              : Front: L R
Sampling rate                  : 48.0 kHz
Frame rate                     : 31.250 FPS (1536 SPF)
Bit depth                      : 16 bits
Compression mode               : Lossy
Stream size                    : 162 MiB (2%)
Title                          : MVO | HDRezka Studio
Language                       : Russian
Service kind                   : Complete Main
Default                        : Yes
Forced                         : No

Audio #2
ID                             : 3
Format                         : DTS
Format/Info                    : Digital Theater Systems
Mode                           : 16
Format settings, Endianness    : Big
Codec ID                       : A_DTS
Duration                       : 1 h 58 min
Bit rate mode                  : Constant
Bit rate                       : 1 509 kb/s
Channel(s)                     : 6 channels
Channel positions              : Front: L C R, Side: L R, LFE
Sampling rate                  : 48.0 kHz
Frame rate                     : 93.750 FPS (512 SPF)
Bit depth                      : 24 bits
Compression mode               : Lossy
Stream size                    : 1.24 GiB (13%)
Language                       : English
Default                        : No
Forced                         : No

Text #1
ID                             : 4
Format                         : UTF-8
Codec ID                       : S_TEXT/UTF8
Codec ID/Info                  : UTF-8 Plain Text
Duration                       : 1 h 52 min
Bit rate                       : 97 b/s
Count of elements              : 2136
Stream size                    : 80.0 KiB (0%)
Title                          : SRT
Language                       : English
Default                        : No
Forced                         : No

Text #2
ID                             : 5
Format                         : PGS
Muxing mode                    : zlib
Codec ID                       : S_HDMV/PGS
Codec ID/Info                  : Picture based subtitle format used on BDs/HD-DVDs
Duration                       : 1 h 52 min
Bit rate                       : 37.3 kb/s
Count of elements              : 4313
Stream size                    : 30.0 MiB (0%)
Title                          : PGS
Language                       : English
Default                        : No
Forced                         : No

Text #3
ID                             : 6
Format                         : PGS
Muxing mode                    : zlib
Codec ID                       : S_HDMV/PGS
Codec ID/Info                  : Picture based subtitle format used on BDs/HD-DVDs
Duration                       : 1 h 53 min
Bit rate                       : 335 b/s
Count of elements              : 42
Stream size                    : 280 KiB (0%)
Title                          : FORCED-PGS
Language                       : Spanish
Default                        : No
Forced                         : No

Text #4
ID                             : 7
Format                         : PGS
Muxing mode                    : zlib
Codec ID                       : S_HDMV/PGS
Codec ID/Info                  : Picture based subtitle format used on BDs/HD-DVDs
Duration                       : 1 h 53 min
Bit rate                       : 33.2 kb/s
Count of elements              : 4369
Stream size                    : 27.0 MiB (0%)
Title                          : PGS
Language                       : Spanish
Default                        : No
Forced                         : No

Text #5
ID                             : 8
Format                         : PGS
Muxing mode                    : zlib
Codec ID                       : S_HDMV/PGS
Codec ID/Info                  : Picture based subtitle format used on BDs/HD-DVDs
Duration                       : 1 h 53 min
Bit rate                       : 443 b/s
Count of elements              : 54
Stream size                    : 369 KiB (0%)
Title                          : FORCED-PGS
Language                       : French
Default                        : No
Forced                         : No

Text #6
ID                             : 9
Format                         : PGS
Muxing mode                    : zlib
Codec ID                       : S_HDMV/PGS
Codec ID/Info                  : Picture based subtitle format used on BDs/HD-DVDs
Duration                       : 1 h 53 min
Bit rate                       : 33.7 kb/s
Count of elements              : 4363
Stream size                    : 27.4 MiB (0%)
Title                          : PGS
Language                       : French
Default                        : No
Forced                         : No

Text #7
ID                             : 10
Format                         : PGS
Muxing mode                    : zlib
Codec ID                       : S_HDMV/PGS
Codec ID/Info                  : Picture based subtitle format used on BDs/HD-DVDs
Duration                       : 1 h 53 min
Bit rate                       : 428 b/s
Count of elements              : 52
Stream size                    : 357 KiB (0%)
Title                          : FORCED-PGS
Language                       : Portuguese
Default                        : No
Forced                         : No

Text #8
ID                             : 11
Format                         : PGS
Muxing mode                    : zlib
Codec ID                       : S_HDMV/PGS
Codec ID/Info                  : Picture based subtitle format used on BDs/HD-DVDs
Duration                       : 1 h 53 min
Bit rate                       : 29.0 kb/s
Count of elements              : 4353
Stream size                    : 23.6 MiB (0%)
Title                          : PGS
Language                       : Portuguese
Default                        : No
Forced                         : No

Menu
00:00:00.000                   : en:Chapter 01
00:07:54.807                   : en:Chapter 02
00:13:08.621                   : en:Chapter 03
00:24:59.539                   : en:Chapter 04
00:32:26.235                   : en:Chapter 05
00:37:12.897                   : en:Chapter 06
00:44:44.264                   : en:Chapter 07
00:50:12.467                   : en:Chapter 08
00:57:41.249                   : en:Chapter 09
01:02:31.831                   : en:Chapter 10
01:08:50.751                   : en:Chapter 11
01:15:25.854                   : en:Chapter 12
01:23:04.688                   : en:Chapter 13
01:28:42.567                   : en:Chapter 14
01:37:53.993                   : en:Chapter 15
01:52:54.392                   : en:Chapter 16



Скриншоты:
[+] Всего файлов в раздаче - 1:
Instant.Family.2018.BDRip.1080p.mkv9.35 GB

Похожие раздачи по запросу - семья:
2019-08-12 U Семья / Family (2018) WEB-DLRip от MegaPeer | iTunes 1.46 GB ↑ 59 ↓ 12
2019-05-01 U Семья по-быстрому / Instant Family (2018) BDRip от Twister & ExKinoRay | Лицензия 1.46 GB ↑ 196 ↓ 59
2019-04-30 U Семья по-быстрому / Instant Family (2018) BDRip 1080p от селезень | Лицензия 1К14.12 GB ↑ 469 ↓ 333
2019-04-15 U Семья по-быстрому / Instant Family (2018) BDRip от Dalemake | HDrezka Studio 1.46 GB ↑ 1221 ↓ 181
2019-03-05 U Моя семья тебя уже обожает / Ma famille t'adore déjà (2016) HDRip | Первый канал 1К1.46 GB ↑ 95 ↓ 15

Отзывы
Зарегистрируйтесь чтобы добавить комментарий.
Обратная связь
Copyleft ©