↑↓Torrent.by
Поиск
Логин: Регистрация
Пароль: Восстановить пароль
Загрузка...

Стекло / Glass (2019) BDRip 1080p от qqss44 & MegaPeer | iTunes

Скачать steklo-glass-2019-bdrip-1080p-ot-qqss44-megapeer-itunes.torrent
U Магнитная ссылка Размер: 7.69 GB Раздают: 71 Качают: 139 Добавлен: 2019-04-16 17:33:02
Стекло / Glass (2019) BDRip 1080p от qqss44 & MegaPeer | iTunes

Информация о фильме
Название: Стекло
Оригинальное название: Glass
Год выпуска: 2019
Жанр:  Фантастика, триллер, драма, детектив
Режиссер: М. Найт Шьямалан
В ролях: Джеймс МакЭвой, Брюс Уиллис, Сэмюэл Л. Джексон, Сара Полсон, Аня Тейлор-Джой, Спенсер Трит Кларк, Чарлэйн Вудард, Люк Кирби, Адам Дэвид Томпсон, М. Найт Шьямалан, Шеннон Дестини Райан, Диана Сильверс, Нина Уиснер, Серж Диденко, Джейн Парк Смит, Кайли Зион, Расселл Познер, Кимберли С. Фербенкс

О фильме:
Похититель с множественным расстройством личности и террорист-инвалид Мистер Стекло выходят на своих давних противников - травмированную девочку-подростка Кейси и стареющего супергероя Дэвида Данна.

Страна: США
Студия: Walt Disney Pictures, Universal Pictures, Blinding Edge Pictures
Продолжительность: 02:09:01
Перевод: Дублированный | iTunes

Файл
Формат: MKV, BDRip 1080p
Видео: MPEG-4 AVC, 7700 Кбит/с, 1920x804
Aудио#1: [RUS] AC3 | 48 KHz | 5.1 (Front: L С R Side: L R) + LFE | ~384 kbps
Aудио#2: [ENG] AC3 | 48 KHz | 5.1 (Front: L С R Side: L R) + LFE | ~448 kbps
Субтитры: русские форсированные + полные, английские полные
Релиз от:


[+] МИ

Общее
Уникальный идентификатор : 202469604128649839224264575681697973951 (0x98523A331529985B87929C5F82B086BF)
Полное имя : H:Glass..(2019).BDRip-1080p.MegaPeer.(qqss44).mkv
Формат : Matroska
Версия формата : Version 2
Размер файла : 7,69 Гбайт
Продолжительность : 2 ч. 9 м.
Общий поток : 8530 Кбит/сек
Название фильма : Glass..(2019).BDRip-1080p.MegaPeer.(qqss44)
Дата кодирования : UTC 2019-04-16 11:50:01
Программа кодирования : mkvmerge v7.8.0 ('River Man') 32bit built on Apr 3 2015 12:11:22
Библиотека кодирования : libebml v1.3.1 + libmatroska v1.4.2

Видео
Идентификатор : 1
Формат : AVC
Формат/Информация : Advanced Video Codec
Профиль формата : High@L4.1
Параметр CABAC формата : Да
Параметр ReFrames формата : 5 кадров
Идентификатор кодека : V_MPEG4/ISO/AVC
Продолжительность : 2 ч. 9 м.
Битрейт : 7700 Кбит/сек
Ширина : 1920 пикселей
Высота : 804 пикселя
Соотношение сторон : 2,40:1
Режим частоты кадров : Постоянный
Частота кадров : 23,976 (24000/1001) кадра/сек
Цветовое пространство : YUV
Субдискретизация насыщенности : 4:2:0
Битовая глубина : 8 бит
Тип развёртки : Прогрессивная
Бит/(Пиксели*Кадры) : 0.208
Размер потока : 6,79 Гбайт (88%)
Библиотека кодирования : x264 core 152 r2851 ba24899
Настройки программы : cabac=1 / ref=5 / deblock=1:-3:-3 / analyse=0x3:0x113 / me=umh / subme=11 / psy=1 / psy_rd=1.00:0.00 / mixed_ref=1 / me_range=32 / chroma_me=1 / trellis=2 / 8x8dct=1 / cqm=0 / deadzone=21,11 / fast_pskip=0 / chroma_qp_offset=-2 / threads=12 / lookahead_threads=2 / sliced_threads=0 / nr=0 / decimate=0 / interlaced=0 / bluray_compat=0 / constrained_intra=0 / bframes=9 / b_pyramid=2 / b_adapt=2 / b_bias=0 / direct=3 / weightb=1 / open_gop=0 / weightp=2 / keyint=250 / keyint_min=23 / scenecut=40 / intra_refresh=0 / rc_lookahead=40 / rc=2pass / mbtree=0 / bitrate=7700 / ratetol=1.0 / qcomp=0.69 / qpmin=0 / qpmax=69 / qpstep=4 / cplxblur=20.0 / qblur=0.5 / vbv_maxrate=50000 / vbv_bufsize=62500 / nal_hrd=none / filler=0 / ip_ratio=1.40 / pb_ratio=1.30 / aq=3:0.90
Язык : English
Default : Да
Forced : Нет

Аудио #1
Идентификатор : 2
Формат : AC-3
Формат/Информация : Audio Coding 3
Расширение режима : CM (complete main)
Параметр Endianness формата : Big
Идентификатор кодека : A_AC3
Продолжительность : 2 ч. 9 м.
Вид битрейта : Постоянный
Битрейт : 384 Кбит/сек
Каналы : 6 каналов
Расположение каналов : Front: L C R, Side: L R, LFE
Частота : 48,0 КГц
Частота кадров : 31,250 кадров/сек (1536 spf)
Метод сжатия : С потерями
Размер потока : 355 Мбайт (5%)
Язык : Russian
Default : Да
Forced : Нет

Аудио #2
Идентификатор : 3
Формат : AC-3
Формат/Информация : Audio Coding 3
Расширение режима : CM (complete main)
Параметр Endianness формата : Big
Идентификатор кодека : A_AC3
Продолжительность : 2 ч. 9 м.
Вид битрейта : Постоянный
Битрейт : 448 Кбит/сек
Каналы : 6 каналов
Расположение каналов : Front: L C R, Side: L R, LFE
Частота : 48,0 КГц
Частота кадров : 31,250 кадров/сек (1536 spf)
Метод сжатия : С потерями
Размер потока : 414 Мбайт (5%)
Язык : English
Default : Нет
Forced : Нет

Текст #1
Идентификатор : 4
Формат : UTF-8
Идентификатор кодека : S_TEXT/UTF8
Идентификатор кодека/Информация : UTF-8 Plain Text
Заголовок : FORCED
Язык : Russian
Default : Да
Forced : Нет

Текст #2
Идентификатор : 5
Формат : UTF-8
Идентификатор кодека : S_TEXT/UTF8
Идентификатор кодека/Информация : UTF-8 Plain Text
Заголовок : FULL
Язык : Russian
Default : Нет
Forced : Нет

Текст #3
Идентификатор : 6
Формат : UTF-8
Идентификатор кодека : S_TEXT/UTF8
Идентификатор кодека/Информация : UTF-8 Plain Text
Заголовок : FULL
Язык : English
Default : Нет
Forced : Нет

Меню
00:00:00.000 : en:Глава 01
00:04:08.457 : en:Глава 02
00:09:36.367 : en:Глава 03
00:14:30.078 : en:Глава 04
00:19:49.897 : en:Глава 05
00:24:41.063 : en:Глава 06
00:29:45.826 : en:Глава 07
00:35:00.598 : en:Глава 08
00:39:07.595 : en:Глава 09
00:47:28.220 : en:Глава 10
00:57:16.224 : en:Глава 11
01:02:55.271 : en:Глава 12
01:09:26.829 : en:Глава 13
01:14:30.299 : en:Глава 14
01:21:43.774 : en:Глава 15
01:30:10.530 : en:Глава 16
01:38:15.515 : en:Глава 17
01:44:08.742 : en:Глава 18
01:54:07.215 : en:Глава 19
02:03:00.290 : en:Глава 20




Скриншоты:
[+] Всего файлов в раздаче - 1:
Glass..(2019).BDRip-1080p.MegaPeer.(qqss44).mkv7.69 GB

Показать еще раздачи по запросу стекло:
2019-07-09 U Стекло / Glass (2019) BDRip от MegaPeer | iTunes 2.13 GB ↑ 59 ↓ 4
2019-07-09 U Стекло / Glass (2019) BDRip от MegaPeer | iTunes 1.46 GB ↑ 128 ↓ 2
2019-04-20 U Стекло / Glass (2019) BDRip от MegaPeer | iTunes 1.46 GB ↑ 125 ↓ 20
2019-04-20 U Стекло / Glass (2019) BDRip от MegaPeer | iTunes 2.13 GB ↑ 58 ↓ 12
2019-04-18 U Стекло / Glass (2019) BDRip 720p от Scarabey | iTunes 5.30 GB ↑ 58 ↓ 23
2019-04-18 U Стекло / Glass (2019) HDRip от Scarabey | iTunes 1.48 GB ↑ 150 ↓ 19
2019-04-17 U Стекло / Glass (2019) BDRip-AVC от HELLYWOOD | iTunes 1.41 GB ↑ 173 ↓ 96

Отзывы
Зарегистрируйтесь чтобы добавить комментарий.
Обратная связь
Copyleft ©