↑↓Torrent.by
Поиск
Логин: Регистрация
Пароль: Восстановить пароль
Загрузка...

ЛЕГО Фильм-2 / The Lego Movie 2: The Second Part (2019) WEB-DLRip-AVC от OlLanDGroup | iTunes

Скачать lego-film-2-the-movie-second-part-2019-web-dlrip-avc-ot-ollandgroup-itunes.torrent
U Магнитная ссылка Размер: 1.46 GB Раздают: 149 Качают: 41 Добавлен: 2019-04-17 20:32:08
ЛЕГО Фильм-2 / The Lego Movie 2: The Second Part (2019) WEB-DLRip-AVC от OlLanDGroup | iTunes

ЛЕГО Фильм-2 / The Lego Movie 2: The Second Part
«Они придут с миром»

Год выпуска: 2019
Страна: Дания, Норвегия, Австралия, США
Производство: Animal Logic, LEGO System A/S, Lord Miller, NPV Entertainment, Rideback, StarReel Entertainment, Vertigo Entertainment, Warner Animation Group, Warner Bros. Animation, Warner Brothers
Жанр:  Мультфильм, мюзикл, фэнтези, боевик, комедия, приключения, семейный

Режиссёр: Майк Митчелл
Роли озвучивают: Крис Прэтт, Элизабет Бэнкс, Уилл Арнетт, Тиффани Хэддиш, Стефани Беатриз, Элисон Бри, Ник Офферман, Чарли Дэй, Майя Рудольф, Уилл Феррелл

Перевод: Профессиональный (полное дублирование) | [ iTunes]
Субтитры: Русские (форс., полные), английские (полные)
Реклама: Отсутствует

Описание: Прошло пять лет с тех пор, как все было прекрасно, и теперь жители пластмассового мира столкнулись с новой невероятной угрозой — вторженцами LEGO DUPLO®, прибывшими из космоса и разрушающими всё на своем пути куда быстрее, чем герои могут построить вновь. В результате жёлтым человечкам приходится жить в мрачной постапокалиптике, но Эммет этого не замечает и продолжает радоваться жизни. Однажды появляется неуязвимый корабль-разведчик и утаскивает с собой выдающихся, по его мнению, героев — Люсю в том числе. Чтобы спасти друзей и восстановить гармонию во вселенной ЛЕГО, Эммет отправляется в необыкновенную галактику, где правит постоянно меняющая форму Королева, и всегда царит музыка.

Качество: WEB-DLRip-AVC
Продолжительность: 01:47:06

Формат: MKV
Видео кодек: MPEG-4 AVC
Аудио кодек: AC3
Видео: 1024x428 (2.40:1), 23,976 fps, x264 ~1566 kbps avg, 0.149 bit/pixel
Аудио : 48 kHz, AC3, 3/2 (L,C,R,l,r) + LFE ch, ~384.00 kbps avg | русский | [iTunes]

Дата премьеры (мир): 6 февраля 2019
Дата премьеры (РФ): 7 февраля 2019, «Каро-Премьер»

Релиз: Rip by:


[+] MediaInfo

Общее
Уникальный идентификатор                 : 158480558215488538044002924830339079396 (0x773A3EC9D22192474CE8C82E02D39CE4)
Полное имя                               : D:TempThe.Lego.Movie.2.The.Second.Part.2019.WEB-DLRip(AVC).OlLanDGroup.mkv
Формат                                   : Matroska
Версия формата                           : Version 4 / Version 2
Размер файла                             : 1,46 Гбайт
Продолжительность                        : 1 ч. 47 м.
Общий поток                              : 1952 Кбит/сек
Название фильма                          : The Lego Movie 2 The Second Part 2019 by Vovan366
Дата кодирования                         : UTC 2019-04-17 13:04:05
Программа кодирования                    : mkvmerge v28.2.0 ('The Awakening') 64-bit
Библиотека кодирования                   : libebml v1.3.6 + libmatroska v1.4.9
DURATION                                 : 01:46:17.937000000
NUMBER_OF_FRAMES                         : 2152
NUMBER_OF_BYTES                          : 71916
_STATISTICS_WRITING_APP                  : mkvmerge v28.2.0 ('The Awakening') 64-bit
_STATISTICS_WRITING_DATE_UTC             : 2019-04-17 13:04:05
_STATISTICS_TAGS                         : BPS DURATION NUMBER_OF_FRAMES NUMBER_OF_BYTES

Видео
Идентификатор                            : 1
Формат                                   : AVC
Формат/Информация                        : Advanced Video Codec
Профиль формата                          : High@L4.1
Параметр CABAC формата                   : Да
Параметр ReFrames формата                : 9 кадров
Идентификатор кодека                     : V_MPEG4/ISO/AVC
Продолжительность                        : 1 ч. 47 м.
Битрейт                                  : 1566 Кбит/сек
Ширина                                   : 1024 пикселя
Высота                                   : 428 пикселей
Соотношение сторон                       : 2,40:1
Режим частоты кадров                     : Постоянный
Частота кадров                           : 23,976 кадра/сек
Цветовое пространство                    : YUV
Субдискретизация насыщенности            : 4:2:0
Битовая глубина                          : 8 бит
Тип развёртки                            : Прогрессивная
Бит/(Пиксели*Кадры)                      : 0.149
Размер потока                            : 1,14 Гбайт (78%)
Заголовок                                : The.Lego.Movie.2.The.Second.Part.2019.WEB-DLRip(AVC).OlLanDGroup
Библиотека кодирования                   : x264 core 146 r2538 121396c
Настройки программы                      : cabac=1 / ref=9 / deblock=1:-3:-3 / analyse=0x3:0x133 / me=umh / subme=11 / psy=1 / psy_rd=1.00:0.00 / mixed_ref=1 / me_range=32 / chroma_me=1 / trellis=2 / 8x8dct=1 / cqm=0 / deadzone=21,11 / fast_pskip=0 / chroma_qp_offset=-2 / threads=6 / lookahead_threads=1 / sliced_threads=0 / nr=0 / decimate=0 / interlaced=0 / bluray_compat=0 / constrained_intra=0 / bframes=10 / b_pyramid=2 / b_adapt=1 / b_bias=0 / direct=3 / weightb=1 / open_gop=0 / weightp=2 / keyint=250 / keyint_min=23 / scenecut=40 / intra_refresh=0 / rc_lookahead=40 / rc=2pass / mbtree=0 / bitrate=1566 / ratetol=1.0 / qcomp=0.60 / qpmin=0 / qpmax=69 / qpstep=4 / cplxblur=20.0 / qblur=0.5 / vbv_maxrate=50000 / vbv_bufsize=52500 / nal_hrd=none / filler=0 / ip_ratio=1.40 / pb_ratio=1.30 / aq=1:1.00
Default                                  : Да
Forced                                   : Нет

Аудио
Идентификатор                            : 2
Формат                                   : AC-3
Формат/Информация                        : Audio Coding 3
Расширение режима                        : CM (complete main)
Параметр Endianness формата              : Big
Идентификатор кодека                     : A_AC3
Продолжительность                        : 1 ч. 47 м.
Вид битрейта                             : Постоянный
Битрейт                                  : 384 Кбит/сек
Каналы                                   : 6 каналов
Расположение каналов                     : Front: L C R, Side: L R, LFE
Частота                                  : 48,0 КГц
Битовая глубина                          : 16 бит
Метод сжатия                             : С потерями
Размер потока                            : 294 Мбайт (20%)
Заголовок                                : iTunes
Язык                                     : Russian
Default                                  : Да
Forced                                   : Да

Текст #1
Идентификатор                            : 3
Формат                                   : UTF-8
Идентификатор кодека                     : S_TEXT/UTF8
Идентификатор кодека/Информация          : UTF-8 Plain Text
Заголовок                                : Forced
Язык                                     : Russian
Default                                  : Да
Forced                                   : Да

Текст #2
Идентификатор                            : 4
Формат                                   : UTF-8
Идентификатор кодека                     : S_TEXT/UTF8
Идентификатор кодека/Информация          : UTF-8 Plain Text
Заголовок                                : Full
Язык                                     : Russian
Default                                  : Нет
Forced                                   : Нет

Текст #3
Идентификатор                            : 5
Формат                                   : UTF-8
Идентификатор кодека                     : S_TEXT/UTF8
Идентификатор кодека/Информация          : UTF-8 Plain Text
Заголовок                                : Forced
Язык                                     : Ukrainian
Default                                  : Нет
Forced                                   : Нет

Текст #4
Идентификатор                            : 6
Формат                                   : UTF-8
Идентификатор кодека                     : S_TEXT/UTF8
Идентификатор кодека/Информация          : UTF-8 Plain Text
Заголовок                                : Full
Язык                                     : English
Default                                  : Нет
Forced                                   : Нет

Меню
00:00:00.000                             : en:1
00:04:14.000                             : en:2
00:12:34.000                             : en:3
00:15:08.000                             : en:4
00:21:56.000                             : en:5
00:29:49.000                             : en:6
00:36:21.000                             : en:7
00:44:46.000                             : en:8
00:50:49.000                             : en:9
00:57:04.000                             : en:10
01:01:06.000                             : en:11
01:09:47.000                             : en:12
01:17:30.000                             : en:13
01:21:57.000                             : en:14
01:26:48.000                             : en:15
01:34:00.000                             : en:16
01:38:28.000                             : en:17



Скриншоты:
[+] Всего файлов в раздаче - 1:
The.Lego.Movie.2.The.Second.Part.2019.WEB-DLRip(AVC).OlLanDGroup.mkv1.46 GB

Показать еще раздачи по запросу лего:
2019-05-02 U ЛЕГО Фильм-2 / The Lego Movie 2: The Second Part (2019) BDRip от MegaPeer | iTunes 1.41 GB ↑ 132 ↓ 29
2019-05-01 U ЛЕГО Фильм-2 / The Lego Movie 2: The Second Part (2019) BDRip от Twister & ExKinoRay | iTunes 1.41 GB ↑ 137 ↓ 31
2019-04-29 U ЛЕГО Фильм-2 / The Lego Movie 2: The Second Part (2019) HDRip от Scarabey | iTunes 1.40 GB ↑ 37 ↓ 8
2019-04-23 U ЛЕГО Фильм-2 / The Lego Movie 2: The Second Part (2019) HDRip | iTunes 2.14 GB ↑ 78 ↓ 19
2019-04-23 U ЛЕГО Фильм-2 / The Lego Movie 2: The Second Part (2019) BDRip 720p от селезень | iTunes 4.78 GB ↑ 128 ↓ 25
2019-04-22 U ЛЕГО Фильм-2 / The Lego Movie 2: The Second Part (2019) BDRip 1080p от селезень | iTunes 10.62 GB ↑ 68 ↓ 39
2019-04-20 U ЛЕГО Фильм-2 / The Lego Movie 2: The Second Part (2019) WEB-DLRip от Scarabey | iTunes 1.45 GB ↑ 57 ↓ 7

Отзывы
Зарегистрируйтесь чтобы добавить комментарий.
Обратная связь
Copyleft ©