↑↓Torrent.by
Поиск
Логин: Регистрация
Пароль: Восстановить пароль
Загрузка...

Как приручить дракона 3 / How to Train Your Dragon: The Hidden World (2019) UHD BDRemux 2160p от селезень | 4K | HDR | D, P | iTunes

Скачать kak-priruchit-drakona-3-how-to-train-your-dragon-the-hidden-world-2019-uhd-bdremux-2160p-ot-selezen-4k-hdr-d-p-itunes.torrent
U Магнитная ссылка Размер: 57.98 GB Раздают: 93 Качают: 51 Добавлен: 2019-04-19 05:39:01
Как приручить дракона 3 / How to Train Your Dragon: The Hidden World (2019) UHD BDRemux 2160p от селезень | 4K | HDR | D, P | iTunes

Название: Как приручить дракона 3
Оригинальное название: How to Train Your Dragon: The Hidden World
Год выхода: 2019
Жанр: Мультфильм, фэнтези, боевик, комедия, приключения, семейный, полнометражный
Режиссер: Дин ДеБлуа
В ролях: Кейт Бланшетт, Джерард Батлер, Джона Хилл, Кит Харингтон, Кристен Уиг, Джей Барушель, Кристофер Минц-Плассе, Америка Феррера, Оулавюр Дарри Оулафссон, Ф. Мюррэй Абрахам, Крэйг Фергюсон, Джастин Руппл

О фильме: Когда-то викинги жили в гармонии с драконами. В те времена они делили радость, горе… и последние штаны. Казалось, что так будет всегда, но появление загадочной Дневной Фурии изменило жизнь острова. И теперь Иккинг и Беззубик столкнутся с безжалостным охотником на драконов, жаждущим уничтожить все, что им дорого.

Страна: США
Студия: DreamWorks Animation, Mad Hatter Entertainment
Продолжительность: 01:44:06
Перевод(ы):
#1: Дублированный | iTunes
#2: Профессиональный многоголосый | HDRezka Studio

Качество: BDRemux 2160p
Видео: 3840x2160 at 23.976 fps, MPEG-H HEVC HDR Video, 75300 kbps avg
Звук:
Аудио #01: 48 kHz, AC3, 5.1, 384 Kbps | iTunes | RUS |
Аудио #02: 48 kHz, AC3, 2.0, 192 Kbps | HDRezka Studio | RUS |
Аудио #03: 48 kHz, TrueHD, 7.1, 3312 Kbps | Оригинал |  ENG |
Аудио #04: 48 kHz, AC3, 5.1, 448 Kbps | Оригинал |  ENG |
Субтитры: Английские

Релиз:


[+] MI
General
Unique ID                   : 6008577920715162217642145150867291250 (0x48535C37B65C3E69D4437593BB33C72)
Complete name               : F:Video1How.to.Train.Your.Dragon.The.Hidden.World.2019.BDREMUX.2160p.HDR.seleZen.mkv
Format                      : Matroska
Format version              : Version 4
File size                   : 58.0 GiB
Duration                    : 1 h 44 min
Overall bit rate mode       : Variable
Overall bit rate            : 79.7 Mb/s
Movie name                  : How to Train Your Dragon: The Hidden World 2019 from селезень
Encoded date                : UTC 2019-04-17 18:51:34
Writing application         : mkvmerge v32.0.0 ('Astral Progressions') 64-bit
Writing library             : libebml v1.3.7 + libmatroska v1.5.0

Video
ID                          : 1
Format                      : HEVC
Format/Info                 : High Efficiency Video Coding
Format profile              : Main 10@L5.1@High
HDR format                  : SMPTE ST 2086, HDR10 compatible
Codec ID                    : V_MPEGH/ISO/HEVC
Duration                    : 1 h 44 min
Bit rate                    : 75.3 Mb/s
Width                       : 3 840 pixels
Height                      : 2 160 pixels
Display aspect ratio        : 16:9
Frame rate mode             : Constant
Frame rate                  : 23.976 (24000/1001) FPS
Color space                 : YUV
Chroma subsampling          : 4:2:0 (Type 2)
Bit depth                   : 10 bits
Bits/(Pixel*Frame)          : 0.379
Stream size                 : 54.8 GiB (94%)
Writing library             : ATEME Titan File 3.9.0 (4.9.0.0)        
Language                    : English
Default                     : Yes
Forced                      : No
Color range                 : Limited
Color primaries             : BT.2020
Transfer characteristics    : PQ
Matrix coefficients         : BT.2020 non-constant
Mastering display color pri : Display P3
Mastering display luminance : min: 0.0050 cd/m2, max: 1000 cd/m2
Maximum Content Light Level : 845 cd/m2
Maximum Frame-Average Light : 196 cd/m2

Audio #1
ID                          : 2
Format                      : AC-3
Format/Info                 : Audio Coding 3
Commercial name             : Dolby Digital
Codec ID                    : A_AC3
Duration                    : 1 h 44 min
Bit rate mode               : Constant
Bit rate                    : 384 kb/s
Channel(s)                  : 6 channels
Channel layout              : L R C LFE Ls Rs
Sampling rate               : 48.0 kHz
Frame rate                  : 31.250 FPS (1536 SPF)
Bit depth                   : 16 bits
Compression mode            : Lossy
Stream size                 : 286 MiB (0%)
Title                       : Dub [iTunes]
Language                    : Russian
Service kind                : Complete Main
Default                     : Yes
Forced                      : Yes

Audio #2
ID                          : 3
Format                      : AC-3
Format/Info                 : Audio Coding 3
Commercial name             : Dolby Digital
Codec ID                    : A_AC3
Duration                    : 1 h 44 min
Bit rate mode               : Constant
Bit rate                    : 192 kb/s
Channel(s)                  : 2 channels
Channel layout              : L R
Sampling rate               : 48.0 kHz
Frame rate                  : 31.250 FPS (1536 SPF)
Bit depth                   : 16 bits
Compression mode            : Lossy
Stream size                 : 143 MiB (0%)
Title                       : MVO [HDRezka Studio]
Language                    : Russian
Service kind                : Complete Main
Default                     : No
Forced                      : No

Audio #3
ID                          : 4
Format                      : MLP FBA 16-ch
Format/Info                 : Meridian Lossless Packing FBA with 16-channel presentation
Commercial name             : Dolby TrueHD with Dolby Atmos
Codec ID                    : A_TRUEHD
Duration                    : 1 h 44 min
Bit rate mode               : Variable
Bit rate                    : 3 312 kb/s
Maximum bit rate            : 5 016 kb/s
Channel(s)                  : 8 channels
Channel layout              : L R C LFE Ls Rs Lb Rb
Sampling rate               : 48.0 kHz
Frame rate                  : 1 200.000 FPS (40 SPF)
Compression mode            : Lossless
Stream size                 : 2.41 GiB (4%)
Title                       : Original
Language                    : English
Default                     : No
Forced                      : No
Number of dynamic objects   : 11
Bed channel count           : 1 channel
Bed channel configuration   : LFE

Audio #4
ID                          : 5
Format                      : AC-3
Format/Info                 : Audio Coding 3
Commercial name             : Dolby Digital
Codec ID                    : A_AC3
Duration                    : 1 h 44 min
Bit rate mode               : Constant
Bit rate                    : 448 kb/s
Channel(s)                  : 6 channels
Channel layout              : L R C LFE Ls Rs
Sampling rate               : 48.0 kHz
Frame rate                  : 31.250 FPS (1536 SPF)
Bit depth                   : 16 bits
Compression mode            : Lossy
Stream size                 : 334 MiB (1%)
Language                    : English
Service kind                : Complete Main
Default                     : No
Forced                      : No

Text
ID                          : 6
Format                      : UTF-8
Codec ID                    : S_TEXT/UTF8
Codec ID/Info               : UTF-8 Plain Text
Duration                    : 1 h 43 min
Bit rate                    : 62 b/s
Count of elements           : 1792
Stream size                 : 48.0 KiB (0%)
Title                       : SDH
Language                    : English
Default                     : No
Forced                      : No

Menu
00:00:00.000                : en:Chapter 1
00:05:13.522                : en:Chapter 2
00:10:26.835                : en:Chapter 3
00:14:52.225                : en:Chapter 4
00:20:33.065                : en:Chapter 5
00:24:38.686                : en:Chapter 6
00:28:40.886                : en:Chapter 7
00:31:10.118                : en:Chapter 8
00:37:35.128                : en:Chapter 9
00:44:38.551                : en:Chapter 10
00:47:53.579                : en:Chapter 11
00:53:11.021                : en:Chapter 12
00:57:36.286                : en:Chapter 13
01:01:25.056                : en:Chapter 14
01:08:55.923                : en:Chapter 15
01:14:17.703                : en:Chapter 16
01:19:31.141                : en:Chapter 17
01:23:23.290                : en:Chapter 18
01:28:24.716                : en:Chapter 19
01:33:53.378                : en:Chapter 20



Скриншоты:
[+] Всего файлов в раздаче - 1:
How.to.Train.Your.Dragon.The.Hidden.World.2019.BDREMUX.2160p.HDR.seleZen.mkv57.98 GB

Показать еще раздачи по запросу приручить:
2019-04-23 U Как приручить дракона 3 / How to Train Your Dragon: The Hidden World (2019) HDRip от Scarabey | iTunes 1.40 GB ↑ 72 ↓ 14
2019-04-22 U Как приручить дракона 3 / How to Train Your Dragon: The Hidden World (2019) UHD BDRip-HEVC 2160p | 4K | HDR | D | iTunes 11.31 GB ↑ 53 ↓ 14
2019-04-22 U Как приручить дракона 3 / How to Train Your Dragon: The Hidden World (2019) BDRip-HEVC 1080p от HANNIBAL | iTunes 6.35 GB ↑ 133 ↓ 40
2019-04-20 U Как приручить дракона 3 / How to Train Your Dragon: The Hidden World (2019) BDRip от MegaPeer | iTunes 1.41 GB ↑ 96 ↓ 17
2019-04-19 U Как приручить дракона 3 / How to Train Your Dragon: The Hidden World (2019) BDRip-AVC от OlLanDGroup | D, P | iTunes 2.10 GB ↑ 128 ↓ 14
2019-04-19 U Как приручить дракона 3 / How to Train Your Dragon: The Hidden World (2019) BDRip-AVC от Dalemake | iTunes 1.45 GB ↑ 76 ↓ 12
2019-04-19 U Как приручить дракона 3 / How to Train Your Dragon: The Hidden World (2019) BDRip 1080p от Ash61 | 3D-Video | halfOU | iTunes 8.74 GB ↑ 65 ↓ 20

Отзывы
Зарегистрируйтесь чтобы добавить комментарий.
Обратная связь
Copyleft ©