↑↓Torrent.by
Поиск
Логин: Регистрация
Пароль: Восстановить пароль
Загрузка...

Как приручить дракона 3 / How to Train Your Dragon: The Hidden World (2019) BDRip-AVC от OlLanDGroup | D, P | iTunes

Скачать kak-priruchit-drakona-3-how-to-train-your-dragon-the-hidden-world-2019-bdrip-avc-ot-ollandgroup-d-p-itunes.torrent
U Магнитная ссылка Размер: 2.10 GB Раздают: 135 Качают: 18 Добавлен: 2019-04-19 05:40:34
Как приручить дракона 3 / How to Train Your Dragon: The Hidden World (2019) BDRip-AVC от OlLanDGroup | D, P | iTunes

Название: Как приручить дракона 3
Оригинальное название: How to Train Your Dragon: The Hidden World
Год выпуска: 2019
Жанр:  Мультфильм, фэнтези, боевик, комедия, приключения, семейный, полнометражный
Выпущено: США, DreamWorks Animation, Mad Hatter Entertainment
Режиссер: Дин ДеБлуа
В ролях: Кейт Бланшетт, Джерард Батлер, Джона Хилл, Кит Харингтон, Кристен Уиг, Джей Барушель, Кристофер Минц-Плассе, Америка Феррера, Оулавюр Дарри Оулафссон, Ф. Мюррэй Абрахам, Крэйг Фергюсон, Джастин Руппл

О фильме: Когда-то викинги жили в гармонии с драконами. В те времена они делили радость, горе… и последние штаны. Казалось, что так будет всегда, но появление загадочной Дневной Фурии изменило жизнь острова. И теперь Иккинг и Беззубик столкнутся с безжалостным охотником на драконов, жаждущим уничтожить все, что им дорого.

Качество: BDRip (AVC)
Видео: MPEG-4 AVC, 2317 Kбит/с, 1024x436, 23.976 кадр/с
Аудио: Русский (AC3, 6 ch, 384 Кбит/с), (AC3, 2 ch, 192 Кбит/с)
Размер: 2.10 ГБ
Продолжительность: 01:44:06
Перевод: Дублированный, профессиональный многоголосый

Озвучивание - Дублированное (iTunes), Профессиональное многоголосое (HDRezka Studio)
Сохранены оригинальные чаптеры.

Релиз:  Rip by:


[+] x264

x264 [info]: frame I:1070  Avg QP:13.34  size: 71206
x264 [info]: frame P:40515 Avg QP:16.85  size: 22872
x264 [info]: frame B:108171 Avg QP:19.06  size:  7421
x264 [info]: consecutive B-frames:  4.0%  4.6% 17.2% 35.6% 16.6% 18.0%  2.1%  0.9%  0.4%  0.2%  0.4%
x264 [info]: mb I  I16..4:  9.6% 62.5% 27.9%
x264 [info]: mb P  I16..4:  1.5% 14.2%  3.3%  P16..4: 28.5% 31.2% 12.0%  2.7%  0.4%    skip: 6.2%
x264 [info]: mb B  I16..4:  0.3%  1.8%  0.6%  B16..8: 32.3% 21.6%  4.0%  direct: 4.9%  skip:34.6%  L0:41.0% L1:44.1% BI:14.9%
x264 [info]: 8x8 transform intra:72.0% inter:51.8%
x264 [info]: direct mvs  spatial:94.3% temporal:5.7%
x264 [info]: coded y,uvDC,uvAC intra: 79.1% 82.1% 63.5% inter: 21.7% 20.1% 11.4%
x264 [info]: i16 v,h,dc,p: 14% 12%  6% 68%
x264 [info]: i8 v,h,dc,ddl,ddr,vr,hd,vl,hu: 10%  9%  9%  9% 12% 11% 13% 11% 15%
x264 [info]: i4 v,h,dc,ddl,ddr,vr,hd,vl,hu: 29%  6%  8%  7% 11% 10% 10%  8% 11%
x264 [info]: i8c dc,h,v,p: 38% 28% 17% 17%
x264 [info]: Weighted P-Frames: Y:6.9% UV:3.9%
x264 [info]: ref P L0: 49.6%  9.3% 15.7%  6.3%  4.7%  3.6%  3.3%  2.9%  2.4%  1.8%  0.5%  0.0%
x264 [info]: ref B L0: 76.3% 10.4%  4.8%  2.4%  1.7%  1.4%  1.3%  1.3%  0.5%
x264 [info]: ref B L1: 93.2%  6.8%
x264 [info]: kb/s:2312.56



[+] Инфо-файл

Общее
Уникальный идентификатор                 : 189490964138678092167474197341616681585 (0x8E8EA1D806B78B6185FAC680EE3B3271)
Полное имя                               : D:ЗагрузкиHow.to.Train.Your.Dragon.3.2019.x264.BDRip.(AVC).OlLanDGroup.mkv
Формат                                   : Matroska
Версия формата                           : Version 4 / Version 2
Размер файла                             : 2,10 Гбайт
Продолжительность                        : 1 ч. 44 м.
Общий поток                              : 2891 Кбит/сек
Название фильма                          : Как приручить дракона 3.2019.Rip by: ollan
Дата кодирования                         : UTC 2019-04-18 14:00:23
Программа кодирования                    : mkvmerge v6.5.0 ('Isn't she lovely') built on Oct 20 2013 12:50:05
Библиотека кодирования                   : libebml v1.3.0 + libmatroska v1.4.1
Обложка                                  : Yes
Attachments                              : Cover - How.To.Train.Your.Dragon.3.png

Видео
Идентификатор                            : 1
Формат                                   : AVC
Формат/Информация                        : Advanced Video Codec
Профиль формата                          : High@L4.1
Настройки формата                        : CABAC / 10 Ref Frames
Параметр CABAC формата                   : Да
Параметр ReFrames формата                : 10 кадров
Идентификатор кодека                     : V_MPEG4/ISO/AVC
Продолжительность                        : 1 ч. 44 м.
Битрейт                                  : 2317 Кбит/сек
Ширина                                   : 1024 пикселя
Высота                                   : 436 пикселей
Соотношение сторон                       : 2,35:1
Режим частоты кадров                     : Постоянный
Частота кадров                           : 23,976 (24000/1001) кадра/сек
Цветовое пространство                    : YUV
Субдискретизация насыщенности            : 4:2:0
Битовая глубина                          : 8 бит
Тип развёртки                            : Прогрессивная
Бит/(Пиксели*Кадры)                      : 0.216
Размер потока                            : 1,64 Гбайт (78%)
Библиотека кодирования                   : x264 core 146 r2538 121396c
Настройки программы                      : cabac=1 / ref=10 / deblock=1:-3:-3 / analyse=0x3:0x133 / me=umh / subme=11 / psy=1 / psy_rd=0.95:0.05 / mixed_ref=1 / me_range=64 / chroma_me=1 / trellis=2 / 8x8dct=1 / cqm=0 / deadzone=21,11 / fast_pskip=0 / chroma_qp_offset=-3 / threads=12 / lookahead_threads=3 / sliced_threads=0 / nr=0 / decimate=0 / interlaced=0 / bluray_compat=0 / constrained_intra=0 / bframes=10 / b_pyramid=2 / b_adapt=2 / b_bias=0 / direct=3 / weightb=1 / open_gop=0 / weightp=2 / keyint=240 / keyint_min=23 / scenecut=40 / intra_refresh=0 / rc_lookahead=40 / rc=2pass / mbtree=0 / bitrate=2317 / ratetol=1.0 / qcomp=0.60 / qpmin=0 / qpmax=69 / qpstep=4 / cplxblur=20.0 / qblur=0.5 / vbv_maxrate=50000 / vbv_bufsize=62500 / nal_hrd=none / filler=0 / ip_ratio=1.40 / pb_ratio=1.30 / aq=1:1.00
Язык                                     : English
Default                                  : Да
Forced                                   : Нет

Аудио #1
Идентификатор                            : 2
Формат                                   : AC-3
Формат/Информация                        : Audio Coding 3
Идентификатор кодека                     : A_AC3
Продолжительность                        : 1 ч. 44 м.
Вид битрейта                             : Постоянный
Битрейт                                  : 384 Кбит/сек
Каналы                                   : 6 каналов
Расположение каналов                     : Front: L C R, Side: L R, LFE
Частота                                  : 48,0 КГц
Частота кадров                           : 31,250 кадров/сек (1536 SPF)
Битовая глубина                          : 16 бит
Метод сжатия                             : С потерями
Размер потока                            : 286 Мбайт (13%)
Заголовок                                : iTunes
Язык                                     : Russian
Service kind                             : Complete Main
Default                                  : Да
Forced                                   : Нет

Аудио #2
Идентификатор                            : 3
Формат                                   : AC-3
Формат/Информация                        : Audio Coding 3
Идентификатор кодека                     : A_AC3
Продолжительность                        : 1 ч. 44 м.
Вид битрейта                             : Постоянный
Битрейт                                  : 192 Кбит/сек
Каналы                                   : 2 канала
Расположение каналов                     : Front: L R
Частота                                  : 48,0 КГц
Частота кадров                           : 31,250 кадров/сек (1536 SPF)
Битовая глубина                          : 16 бит
Метод сжатия                             : С потерями
Размер потока                            : 143 Мбайт (7%)
Заголовок                                : HDRezka Studio
Язык                                     : Russian
Service kind                             : Complete Main
Default                                  : Нет
Forced                                   : Нет

Меню
00:00:00.000                             : en:Chapter 01
00:05:13.521                             : en:Chapter 02
00:10:26.834                             : en:Chapter 03
00:14:52.224                             : en:Chapter 04
00:20:33.065                             : en:Chapter 05
00:24:38.685                             : en:Chapter 06
00:28:40.885                             : en:Chapter 07
00:31:10.118                             : en:Chapter 08
00:37:35.127                             : en:Chapter 09
00:44:38.550                             : en:Chapter 10
00:47:53.579                             : en:Chapter 11
00:53:11.021                             : en:Chapter 12
00:57:36.286                             : en:Chapter 13
01:01:25.056                             : en:Chapter 14
01:08:55.923                             : en:Chapter 15
01:14:17.703                             : en:Chapter 16
01:19:31.141                             : en:Chapter 17
01:23:23.289                             : en:Chapter 18
01:28:24.716                             : en:Chapter 19
01:33:53.377                             : en:Chapter 20




Скриншоты:
[+] Всего файлов в раздаче - 1:
How.to.Train.Your.Dragon.3.2019.x264.BDRip.(AVC).OlLanDGroup.mkv2.10 GB

Показать еще раздачи по запросу приручить:
2019-06-18 U Как приручить дракона 3 / How to Train Your Dragon: The Hidden World (2019) BDRip 720p от Scarabey | Лицензия 4.15 GB ↑ 60 ↓ 15
2019-06-15 U Как приручить дракона 3 / How to Train Your Dragon: The Hidden World (2019) HDRip от Scarabey | Лицензия 1.45 GB ↑ 75 ↓ 16
2019-06-15 U Как приручить дракона 3 / How to Train Your Dragon: The Hidden World (2019) BDRip 1080p от qqss44 & MegaPeer | Лицензия 5.55 GB ↑ 63 ↓ 11
2019-06-13 U Как приручить дракона 3 / How to Train Your Dragon: The Hidden World (2019) HDRip от Scarabey | Лицензия 743.92 MB ↑ 69 ↓ 7
2019-06-12 U Как приручить дракона 3 / How to Train Your Dragon: The Hidden World (2019) BDRip-AVC от OlLanDGroup | D, P | Лицензия 2.15 GB ↑ 34 ↓ 9
2019-06-12 U Как приручить дракона 3 / How to Train Your Dragon: The Hidden World (2019) BDRip от Twister & ExKinoRay | Лицензия 1.46 GB ↑ 26 ↓ 10
2019-06-11 U Как приручить дракона 3 / How to Train Your Dragon: The Hidden World (2019) BDRip 1080p от селезень | D, P | Лицензия 8.29 GB ↑ 134 ↓ 64

Отзывы
Зарегистрируйтесь чтобы добавить комментарий.
Обратная связь
Copyleft ©