↑↓Torrent.by
Поиск
Логин: Регистрация
Пароль: Восстановить пароль
Загрузка...

Зорге [01-12 из 12] (2019) WEB-DLRip от GeneralFilm

Скачать zorge-01-12-iz-2019-web-dlrip-ot-generalfilm.torrent
U Магнитная ссылка Размер: 6.54 GB Раздают: 481 Качают: 206 Добавлен: 2019-04-19 19:14:20
Зорге [01-12 из 12] (2019) WEB-DLRip от GeneralFilm

Оригинальное название: Зорге
Год выпуска: 2019
Жанр:  Биография, драма
Выпущено: Россия, Китай, Украина, Star Media, Shanghai Film Group
Режиссер: Сергей Гинзбург
В ролях: Александр Домогаров, Виктория Исакова, Сергей Гинзбург, Андрей Леонов, Юлия Ауг, Анатолий Дзиваев, Сергей Багиров, Василий Мищенко, Андрей Руденский, Кирилл Кузнецов, Анна Бачалова, Александр Никольский, Евгения Бордзиловская, Сергей Бызгу, Игорь Фурманюк, Роман Индык, Анатолий Котенёв, Александр Орав, Павел Капитонов, Александр Зуев, Иван Шибанов, Татьяна Космачёва, Анастасия Цой, Гэ Ян, Дин Фан, Джунсуке Киносита, Шион Накамару, Осаму Ямамото, Мария Ахметзянова, Юрий Лахин, Николай Юшкевич, Роман Хан

О фильме: Весна 1941 года. Советский резидент в Японии Рихард Зорге (агентурный псевдоним Рамзай) работает в Токио под видом немецкого журналиста. От посла Германии в Японии Эйгена Отта он узнает, что Гитлер принял решение напасть на СССР. Рихард немедленно сообщает о грозящей опасности в ставку, но точного времени вторжения назвать не может… Москва считает информацию не внушающей доверия, поскольку Зорге находится в опале. Рихард пренебрегает всеми правилами конспирации и шлет радиограммы одну за одной. В итоге его засекает секретная служба Японии, возглавляемая полковником Осаки, который давно охотится на советского резидента. После начала Великой Отечественной войны Москва пересматривает свое отношение к Рамзаю – он становится фигурой номер один во внешней разведке. Зорге поручают узнать, собирается ли Япония начать военные действия против СССР и если собирается, то когда…

Качество: WEB-DLRip
Видео: XviD build 73, 720x400 (16:9), 25.000 fps, ~ 1350 Kbps (~ 0.185 bit/pixel)
Аудио: 48.0 kHz, AC3, 2/0 ch, 192 kbps
Продолжительность: 12 x ~ 00:50:00
Перевод: Не требуется [Русский]
Cубтитры: нет

Релиз:
[+] MediaInfo

General
Complete name               : D:RazdachiZorge.2019.WEB-DLRip.GeneralFilmZorge.e01.avi
Format                      : AVI
Format/Info                 : Audio Video Interleave
File size                   : 558 MiB
Duration                    : 50 min 35 s
Overall bit rate            : 1 541 kb/s
Writing application         : VirtualDubMod 1.5.10.3 | www.virtualdub-fr.org || (build 2550/release)
Writing library             : VirtualDubMod build 2550/release

Video
ID                          : 0
Format                      : MPEG-4 Visual
Format profile              : Advanced Simple@L5
Format settings             : BVOP1 / Custom Matrix
Format settings, BVOP       : 1
Format settings, QPel       : No
Format settings, GMC        : No warppoints
Format settings, Matrix     : Custom
Codec ID                    : XVID
Codec ID/Hint               : XviD
Duration                    : 50 min 35 s
Bit rate                    : 1 340 kb/s
Width                       : 720 pixels
Height                      : 400 pixels
Display aspect ratio        : 16:9
Frame rate                  : 25.000 FPS
Color space                 : YUV
Chroma subsampling          : 4:2:0
Bit depth                   : 8 bits
Scan type                   : Progressive
Compression mode            : Lossy
Bits/(Pixel*Frame)          : 0.186
Stream size                 : 485 MiB (87%)
Writing library             : XviD 73

Audio
ID                          : 1
Format                      : AC-3
Format/Info                 : Audio Coding 3
Commercial name             : Dolby Digital
Codec ID                    : 2000
Duration                    : 50 min 35 s
Bit rate mode               : Constant
Bit rate                    : 192 kb/s
Channel(s)                  : 2 channels
Channel layout              : L R
Sampling rate               : 48.0 kHz
Frame rate                  : 31.250 FPS (1536 SPF)
Bit depth                   : 16 bits
Compression mode            : Lossy
Stream size                 : 69.5 MiB (12%)
Alignment                   : Split accross interleaves
Interleave, duration        : 40  ms (1.00 video frame)
Interleave, preload duratio : 500  ms
Service kind                : Complete Main



Скриншоты:
[+] Всего файлов в раздаче - 12:
Zorge.e01.avi557.72 MB
Zorge.e02.avi557.69 MB
Zorge.e03.avi557.63 MB
Zorge.e04.avi557.95 MB
Zorge.e05.avi557.62 MB
Zorge.e06.avi557.94 MB
Zorge.e07.avi557.61 MB
Zorge.e08.avi557.83 MB
Zorge.e09.avi557.74 MB
Zorge.e10.avi557.62 MB
Zorge.e11.avi557.50 MB
Zorge.e12.avi557.82 MB

Похожие раздачи по запросу - зорге:
2019-05-10 U Секретная папка. Зорге (2019) SATRip 509.96 MB ↑ 108 ↓ 14
2019-04-17 U Зорге [01-09 из 12] (2019) WEB-DLRip от GeneralFilm 4.90 GB ↑ 206 ↓ 76

Отзывы
Зарегистрируйтесь чтобы добавить комментарий.
Обратная связь
Copyleft ©