↑↓Torrent.by
Поиск
Логин: Регистрация
Пароль: Восстановить пароль
Загрузка...

Дебаты Зеленского и Порошенко. Прямая трансляция [19.04] (2019) WEBRip

Скачать debaty-zelenskogo-i-poroshenko-pryamaya-translyaciya-19-04-2019-webrip.torrent
U Магнитная ссылка Размер: 972.92 MB Раздают: 195 Качают: 60 Добавлен: 2019-04-20 07:17:32
Дебаты Зеленского и Порошенко. Прямая трансляция [19.04] (2019)  WEBRip

Название: Дебаты Зеленского и Порошенко. Прямая трансляция
Год выпуска: 2019
Жанр:  Реалити-шоу
В ролях: Зеленский и Порошенко

О фильме: Дебаты кандидатов в президенты Украины Владимира Зеленского и Петра Порошенко на стадионе «Олимпийский» в Киеве.

Выпущено: Россия
Студия: НТВ
Продолжительность: 01:09:02
Перевод: Не требуется (Онлайн перевод)

Файл
Качество: WEBRip
Видео: AVC, 1839 Кбит/c, 1280x720
Аудио: AAC, 2 ch, 128 Кбит/с
[+] MediaInfo
Общее
Полное имя                               : C:UsersUserDownloadsДебаты Зеленского и Порошенко. Прямая трансляция.mp4
Формат                                   : MPEG-4
Профиль формата                          : Base Media / Version 2
Идентификатор кодека                     : mp42 (isom/mp42)
Размер файла                             : 973 Мбайт
Продолжительность                        : 1 ч. 9 м.
Режим общего битрейта                    : Переменный
Общий поток                              : 1970 Кбит/сек
Дата кодирования                         : UTC 2019-04-19 17:54:06
Дата пометки                             : UTC 2019-04-19 17:54:06
gsst                                     : 0
gstd                                     : 4142347

Видео
Идентификатор                            : 1
Формат                                   : AVC
Формат/Информация                        : Advanced Video Codec
Профиль формата                          : Main@L3.1
Настройки формата                        : CABAC / 3 Ref Frames
Параметр CABAC формата                   : Да
Параметр RefFrames формата               : 3 кадра
Идентификатор кодека                     : avc1
Идентификатор кодека/Информация          : Advanced Video Coding
Продолжительность                        : 1 ч. 9 м.
Битрейт                                  : 1839 Кбит/сек
Ширина                                   : 1280 пикселей
Высота                                   : 720 пикселей
Соотношение сторон                       : 16:9
Режим частоты кадров                     : Постоянный
Частота кадров                           : 25,000 кадров/сек
Цветовое пространство                    : YUV
Субдискретизация насыщенности            : 4:2:0
Битовая глубина                          : 8 бит
Тип развёртки                            : Прогрессивная
Бит/(Пиксели*Кадры)                      : 0.080
Размер потока                            : 908 Мбайт (93%)
Заголовок                                : ISO Media file produced by Google Inc. Created on: 04/19/2019.
Дата кодирования                         : UTC 2019-04-19 17:54:06
Дата пометки                             : UTC 2019-04-19 17:54:06
Цветовой диапазон                        : Limited
Основные цвета                           : BT.709
Характеристики трансфера                 : BT.709
Коэффициенты матрицы                     : BT.709
Codec configuration box                  : avcC

Аудио
Идентификатор                            : 2
Формат                                   : AAC LC
Формат/Информация                        : Advanced Audio Codec Low Complexity
Идентификатор кодека                     : mp4a-40-2
Продолжительность                        : 1 ч. 9 м.
Вид битрейта                             : Переменный
Битрейт                                  : 128 Кбит/сек
Каналы                                   : 2 канала
Channel layout                           : L R
Частота                                  : 44,1 КГц
Частота кадров                           : 43,066 кадра/сек (1024 SPF)
Метод сжатия                             : С потерями
Размер потока                            : 63,2 Мбайт (6%)
Заголовок                                : ISO Media file produced by Google Inc. Created on: 04/19/2019.
Дата кодирования                         : UTC 2019-04-19 17:54:06
Дата пометки                             : UTC 2019-04-19 17:54:06



Скриншоты:
[+] Всего файлов в раздаче - 1:
Дебаты Зеленского и Порошенко. Прямая трансляция.mp4972.92 MB

Отзывы
Зарегистрируйтесь чтобы добавить комментарий.
Обратная связь
Copyleft ©