↑↓Torrent.by
Поиск
Логин: Регистрация
Пароль: Восстановить пароль
Загрузка...

Холмс & Ватсон / Holmes and Watson (2018) BDRip 720p от селезень | Лицензия

Скачать holms-vatson-holmes-and-watson-2018-bdrip-720p-ot-selezen-licenziya.torrent
U Магнитная ссылка Размер: 3.55 GB Раздают: 296 Качают: 177 Добавлен: 2019-04-20 10:50:31
Холмс & Ватсон / Holmes and Watson (2018) BDRip 720p от селезень | Лицензия

Название: Холмс & Ватсон
Оригинальное название: Holmes & Watson
Год выхода: 2018
Жанр: Комедия, криминал, детектив, приключения
Режиссер: Этан Коэн
В ролях: Лорен Лапкус, Уилл Феррелл, Келли Макдональд, Джон С. Райлли, Ребекка Холл, Рэйф Файнс, Ноа Джуп, Стив Кугэн, Хью Лори, Пэм Феррис

О фильме: История о частном сыщике Шерлоке Холмсе и его напарнике докторе Ватсоне. Эксцентричный дуэт берется за запутанное расследование, наживая врагов со всего света.

Страна: США
Студия: Columbia Pictures Corporation, Gary Sanchez Productions, Mimran Schur Pictures
Продолжительность: 01:29:55
Перевод: Дублированный | Лицензия

Качество: BDRip 1080p
Видео: MPEG-4 AVC, 1920x800, 10.2 Mbit/s, 23.976 fps
Звук:
Аудио #01: 48 kHz, AC3, 5.1, 640 Kbps | Дублированный | RUS |
Аудио #02: 48 kHz, AC3, 5.1, 640 Kbps | Оригинал |  ENG |
Субтитры: Русские (Forced, full), английские

Релиз:


[+] MI
General
Unique ID                   : 330116449623390882097140828456306635384 (0xF85A1D9473BB2C04489419C5AE907278)
Complete name               : D:Video111Holmes.And.Watson.BDRip.720p.seleZen.mkv
Format                      : Matroska
Format version              : Version 4
File size                   : 3.55 GiB
Duration                    : 1 h 29 min
Overall bit rate            : 5 647 kb/s
Movie name                  : Holmes And Watson 2018 from селезень
Encoded date                : UTC 2019-04-20 05:20:22
Writing application         : mkvmerge v32.0.0 ('Astral Progressions') 64-bit
Writing library             : libebml v1.3.7 + libmatroska v1.5.0

Video
ID                          : 1
Format                      : AVC
Format/Info                 : Advanced Video Codec
Format profile              : High@L4.1
Format settings             : CABAC / 12 Ref Frames
Format settings, CABAC      : Yes
Format settings, ReFrames   : 12 frames
Codec ID                    : V_MPEG4/ISO/AVC
Duration                    : 1 h 29 min
Bit rate                    : 4 365 kb/s
Width                       : 1 280 pixels
Height                      : 534 pixels
Display aspect ratio        : 2.40:1
Frame rate mode             : Constant
Frame rate                  : 23.976 (24000/1001) FPS
Color space                 : YUV
Chroma subsampling          : 4:2:0
Bit depth                   : 8 bits
Scan type                   : Progressive
Bits/(Pixel*Frame)          : 0.266
Stream size                 : 2.74 GiB (77%)
Title                       : seleZen
Writing library             : x264 core 148 r2705kMod 3f5ed56
Encoding settings           : cabac=1 / ref=12 / deblock=1:-2:-2 / analyse=0x3:0x133 / me=tesa / subme=10 / psy=1 / fade_compensate=0.00 / psy_rd=1.20:0.04 / mixed_ref=1 / me_range=24 / chroma_me=1 / trellis=2 / 8x8dct=1 / cqm=0 / deadzone=21,11 / fast_pskip=0 / chroma_qp_offset=-3 / threads=12 / lookahead_threads=2 / sliced_threads=0 / nr=0 / decimate=0 / interlaced=0 / bluray_compat=0 / constrained_intra=0 / fgo=0 / bframes=8 / b_pyramid=2 / b_adapt=2 / b_bias=0 / direct=3 / weightb=1 / open_gop=0 / weightp=2 / keyint=240 / keyint_min=23 / scenecut=40 / intra_refresh=0 / rc_lookahead=50 / rc=2pass / mbtree=0 / bitrate=4365 / ratetol=1.0 / qcomp=0.60 / qpmin=0 / qpmax=51 / qpstep=4 / cplxblur=20.0 / qblur=0.5 / vbv_maxrate=50000 / vbv_bufsize=62500 / nal_hrd=none / filler=0 / ip_ratio=1.40 / pb_ratio=1.30 / aq=3:0.80
Language                    : English
Default                     : Yes
Forced                      : No

Audio #1
ID                          : 2
Format                      : AC-3
Format/Info                 : Audio Coding 3
Commercial name             : Dolby Digital
Codec ID                    : A_AC3
Duration                    : 1 h 29 min
Bit rate mode               : Constant
Bit rate                    : 640 kb/s
Channel(s)                  : 6 channels
Channel layout              : L R C LFE Ls Rs
Sampling rate               : 48.0 kHz
Frame rate                  : 31.250 FPS (1536 SPF)
Bit depth                   : 16 bits
Compression mode            : Lossy
Stream size                 : 412 MiB (11%)
Title                       : Dub [License]
Language                    : Russian
Service kind                : Complete Main
Default                     : Yes
Forced                      : Yes

Audio #2
ID                          : 3
Format                      : AC-3
Format/Info                 : Audio Coding 3
Commercial name             : Dolby Digital
Codec ID                    : A_AC3
Duration                    : 1 h 29 min
Bit rate mode               : Constant
Bit rate                    : 640 kb/s
Channel(s)                  : 6 channels
Channel layout              : L R C LFE Ls Rs
Sampling rate               : 48.0 kHz
Frame rate                  : 31.250 FPS (1536 SPF)
Bit depth                   : 16 bits
Compression mode            : Lossy
Stream size                 : 412 MiB (11%)
Title                       : Original
Language                    : English
Service kind                : Complete Main
Default                     : No
Forced                      : No

Text #1
ID                          : 4
Format                      : UTF-8
Codec ID                    : S_TEXT/UTF8
Codec ID/Info               : UTF-8 Plain Text
Duration                    : 1 h 28 min
Bit rate                    : 2 b/s
Count of elements           : 29
Stream size                 : 1.56 KiB (0%)
Title                       : Forced
Language                    : Russian
Default                     : Yes
Forced                      : Yes

Text #2
ID                          : 5
Format                      : UTF-8
Codec ID                    : S_TEXT/UTF8
Codec ID/Info               : UTF-8 Plain Text
Duration                    : 1 h 28 min
Bit rate                    : 121 b/s
Count of elements           : 1687
Stream size                 : 78.7 KiB (0%)
Title                       : Full
Language                    : Russian
Default                     : No
Forced                      : No

Text #3
ID                          : 6
Format                      : UTF-8
Codec ID                    : S_TEXT/UTF8
Codec ID/Info               : UTF-8 Plain Text
Duration                    : 1 h 23 min
Bit rate                    : 89 b/s
Count of elements           : 1625
Stream size                 : 55.0 KiB (0%)
Title                       : Full
Language                    : English
Default                     : No
Forced                      : No

Menu
00:00:00.000                : en:Chapter 01
00:03:19.199                : en:Chapter 02
00:08:35.473                : en:Chapter 03
00:15:47.154                : en:Chapter 04
00:19:52.482                : en:Chapter 05
00:24:59.706                : en:Chapter 06
00:33:06.067                : en:Chapter 07
00:38:11.080                : en:Chapter 08
00:42:55.322                : en:Chapter 09
00:51:08.231                : en:Chapter 10
00:58:25.627                : en:Chapter 11
01:01:14.879                : en:Chapter 12
01:07:44.602                : en:Chapter 13
01:11:27.950                : en:Chapter 14
01:18:00.300                : en:Chapter 15
01:21:33.805                : en:Chapter 16



Скриншоты:
[+] Всего файлов в раздаче - 1:
Holmes.And.Watson.BDRip.720p.seleZen.mkv3.55 GB

Показать еще раздачи по запросу холмс:
2019-04-22 U Холмс & Ватсон / Holmes and Watson (2018) BDRip-AVC от OlLanDGroup | Лицензия 1.49 GB ↑ 188 ↓ 27
2019-04-20 U Холмс & Ватсон / Holmes and Watson (2018) HDRip от Portablius | Лицензия 743.04 MB ↑ 224 ↓ 45
2019-04-20 U Холмс & Ватсон / Holmes and Watson (2018) BDRemux 1080p от селезень | Лицензия 17.41 GB ↑ 155 ↓ 62
2019-03-14 U Серия книг - «Шерлок Холмс. Игра продолжается» [10 книг] (2013-2015) FB2 21.37 MB ↑ 200 ↓ 17
2016-05-04 U Шерлок Холмс и доктор Ватсон: Королевский скандал / The Royal Scandal (2001) DVDRip | Р 1.46 GB ↑ 207 ↓ 47
2013-12-25 U Шерлок Холмс [01-08 из 08] (2013) DVDRip-AVC от New-Team | лицензия 1К10.70 GB ↑ 75 ↓ 116
2013-12-19 U Шерлок Холмс [01-16 из 16] (2013) DVDRip | Лицензия 1К10.94 GB ↑ 566 ↓ 359

Отзывы
Зарегистрируйтесь чтобы добавить комментарий.
Обратная связь
Copyleft ©