↑↓Torrent.by
Поиск
Логин: Регистрация
Пароль: Восстановить пароль
Загрузка...

Клаустрофобы / Escape Room (2019) BDRip-HEVC 1080p от M@kSIMus | iTunes

Скачать klaustrofoby-escape-room-2019-bdrip-hevc-1080p-ot-m-ksimus-itunes.torrent
U Магнитная ссылка Размер: 5.98 GB Раздают: 106 Качают: 26 Добавлен: 2019-04-21 13:42:54
Клаустрофобы / Escape Room (2019) BDRip-HEVC 1080p от M@kSIMus | iTunes

Название: Клаустрофобы
Оригинальное название: Escape Room
Год выхода: 2019
Производство: ЮАР, США / Original Film
Жанр:  Триллер
Продолжительность: 01:39:37

Режиссер: Адам Робител
В ролях: Тейлор Расселл, Логан Миллер, Джей Эллис, Тайлер Лабин, Дебора Энн Уолл, Ник Додани, Йорик ван Вагенинген, Корнелиус Джини мл., Рассел Кроус, Барт Фаш

Описание: Получив от таинственной организации приглашение сыграть в квест, победитель которого получит солидную сумму, шестеро незнакомых между собой людей решают попытать удачу. Но совсем скоро им становится понятно, что их выбрали для игры не случайно, задания не такие безобидные, и им грозит вполне реальная опасность, а ставка в игре - их собственные жизни.

Качество: BDRip 1080p-HEVC
Видео: HEVC/H.265, 1920x804, ~7765 Kbps, 10 bit
Аудио 01: AC3, 6 ch, 384 Kbps | Русский, Дублированный (iTunes)
Аудио 02: AC3, 6 ch, 448 Kbps | Английский, Оригинал
Субтитры: Русские (форсированные, полные), английские (полные)

Релиз от: M@kSIMus


[+] Mediainfo
x265 info: frame I:   1809, Avg QP:14.23  kb/s: 23072.20
x265 info: frame P:  26024, Avg QP:15.52  kb/s: 15065.95
x265 info: frame B: 115495, Avg QP:18.05  kb/s: 5878.80
x265 info: Weighted P-Frames: Y:10.6% UV:7.6%
x265 info: Weighted B-Frames: Y:7.8% UV:4.8%
x265 info: consecutive B-frames: 10.0% 3.9% 5.8% 29.4% 7.3% 14.9% 3.4% 21.5% 1.1% 1.0% 0.2% 1.3% 0.1% 0.0% 0.0% 0.1% 0.0%
x265 info: encoded 143328 frames in 177730.68s (0.81 fps), 7763.91 kb/s, Avg QP:17.54

Общее
Уникальный идентификатор                 : 192092439133157408936028442447202622801 (0x9083A876BB2A547A3D4C4E2423AE1D51)
Полное имя                               : Клаустрофобы (2019) BDRip 1080p [HEVC] 10 bit.mkv
Формат                                   : Matroska
Версия формата                           : Version 4
Размер файла                             : 5,98 Гбайт
Продолжительность                        : 1 ч. 39 м.
Общий поток                              : 8599 Кбит/сек
Название фильма                          : Клаустрофобы (2019) Encoded_by_M@kSIMus
Дата кодирования                         : UTC 2019-04-21 01:43:50
Программа кодирования                    : mkvmerge v28.0.0 ('Voice In My Head') 64-bit
Библиотека кодирования                   : libebml v1.3.6 + libmatroska v1.4.9
Обложка                                  : Yes
Attachments                              : cover.jpg

Видео
Идентификатор                            : 1
Формат                                   : HEVC
Формат/Информация                        : High Efficiency Video Coding
Профиль формата                          : Main 10@L4.1@High
Идентификатор кодека                     : V_MPEGH/ISO/HEVC
Продолжительность                        : 1 ч. 39 м.
Битрейт                                  : 7765 Кбит/сек
Ширина                                   : 1920 пикселей
Высота                                   : 804 пикселя
Соотношение сторон                       : 2,40:1
Режим частоты кадров                     : Постоянный
Частота кадров                           : 23,976 (24000/1001) кадра/сек
Цветовое пространство                    : YUV
Субдискретизация насыщенности            : 4:2:0
Битовая глубина                          : 10 бит
Бит/(Пиксели*Кадры)                      : 0.210
Размер потока                            : 5,40 Гбайт (90%)
Заголовок                                : Клаустрофобы (2019) Encoded_by_M@kSIMus
Библиотека кодирования                   : x265 2.9+9-f74003e88622:[Windows][GCC 8.2.0][64 bit] 10bit
Настройки программы                      : cpuid=1049583 / frame-threads=5 / numa-pools=4 / wpp / no-pmode / no-pme / no-psnr / no-ssim / log-level=3 / input-csp=1 / input-res=1920x804 / interlace=0 / total-frames=0 / level-idc=41 / high-tier=1 / uhd-bd=0 / ref=5 / allow-non-conformance / no-repeat-headers / annexb / no-aud / no-hrd / info / hash=0 / no-temporal-layers / open-gop / min-keyint=24 / keyint=240 / gop-lookahead=0 / bframes=16 / b-adapt=2 / b-pyramid / bframe-bias=0 / rc-lookahead=40 / lookahead-slices=5 / scenecut=40 / radl=0 / no-intra-refresh / ctu=32 / min-cu-size=8 / rect / no-amp / max-tu-size=32 / tu-inter-depth=4 / tu-intra-depth=4 / limit-tu=1 / rdoq-level=1 / dynamic-rd=0.00 / no-ssim-rd / signhide / no-tskip / nr-intra=0 / nr-inter=0 / no-constrained-intra / no-strong-intra-smoothing / max-merge=4 / limit-refs=3 / no-limit-modes / me=3 / subme=7 / merange=57 / temporal-mvp / weightp / weightb / no-analyze-src-pics / deblock=-3:-3 / no-sao / no-sao-non-deblock / rd=4 / no-early-skip / no-rskip / no-fast-intra / no-tskip-fast / no-cu-lossless / no-b-intra / no-splitrd-skip / rdpenalty=0 / psy-rd=2.00 / psy-rdoq=1.00 / no-rd-refine / no-lossless / cbqpoffs=0 / crqpoffs=0 / rc=crf / crf=19.0 / qcomp=0.60 / qpstep=4 / stats-write=0 / stats-read=0 / vbv-maxrate=50000 / vbv-bufsize=50000 / vbv-init=0.9 / crf-max=0.0 / crf-min=0.0 / ipratio=1.40 / pbratio=1.30 / aq-mode=3 / aq-strength=1.00 / no-cutree / zone-count=0 / no-strict-cbr / qg-size=32 / no-rc-grain / qpmax=69 / qpmin=0 / no-const-vbv / sar=1 / overscan=0 / videoformat=5 / range=0 / colorprim=1 / transfer=1 / colormatrix=1 / chromaloc=0 / display-window=0 / max-cll=0,0 / min-luma=0 / max-luma=1023 / log2-max-poc-lsb=8 / vui-timing-info / vui-hrd-info / slices=1 / no-opt-qp-pps / no-opt-ref-list-length-pps / no-multi-pass-opt-rps / scenecut-bias=0.05 / no-opt-cu-delta-qp / no-aq-motion / no-hdr / no-hdr-opt / no-dhdr10-opt / no-idr-recovery-sei / analysis-reuse-level=5 / scale-factor=0 / refine-intra=0 / refine-inter=0 / refine-mv=0 / no-limit-sao / ctu-info=0 / no-lowpass-dct / refine-mv-type=0 / copy-pic=1 / max-ausize-factor=1.0 / no-dynamic-refine / no-single-sei
Язык                                     : English
Default                                  : Да
Forced                                   : Нет
Цветовой диапазон                        : Limited
Основные цвета                           : BT.709
Характеристики трансфера                 : BT.709
Коэффициенты матрицы                     : BT.709

Аудио #1
Идентификатор                            : 2
Формат                                   : AC-3
Формат/Информация                        : Audio Coding 3
Коммерческое название                    : Dolby Digital
Идентификатор кодека                     : A_AC3
Продолжительность                        : 1 ч. 39 м.
Вид битрейта                             : Постоянный
Битрейт                                  : 384 Кбит/сек
Каналы                                   : 6 каналов
Channel layout                           : L R C LFE Ls Rs
Частота                                  : 48,0 КГц
Частота кадров                           : 31,250 кадров/сек (1536 SPF)
Битовая глубина                          : 16 бит
Метод сжатия                             : С потерями
Размер потока                            : 274 Мбайт (4%)
Заголовок                                : Дубляж (iTunes)
Язык                                     : Russian
Default                                  : Да
Forced                                   : Нет

Аудио #2
Идентификатор                            : 3
Формат                                   : AC-3
Формат/Информация                        : Audio Coding 3
Коммерческое название                    : Dolby Digital
Идентификатор кодека                     : A_AC3
Продолжительность                        : 1 ч. 39 м.
Вид битрейта                             : Постоянный
Битрейт                                  : 448 Кбит/сек
Каналы                                   : 6 каналов
Channel layout                           : L R C LFE Ls Rs
Частота                                  : 48,0 КГц
Частота кадров                           : 31,250 кадров/сек (1536 SPF)
Битовая глубина                          : 16 бит
Метод сжатия                             : С потерями
Размер потока                            : 319 Мбайт (5%)
Заголовок                                : Оригинал
Язык                                     : English
Default                                  : Нет
Forced                                   : Нет

Текст #1
Идентификатор                            : 4
Формат                                   : UTF-8
Идентификатор кодека                     : S_TEXT/UTF8
Идентификатор кодека/Информация          : UTF-8 Plain Text
Продолжительность                        : 1 ч. 34 м.
Битрейт                                  : 0 бит/сек
ElementCount                             : 5
Размер потока                            : 178 байт (0%)
Заголовок                                : Rus Forced
Язык                                     : Russian
Default                                  : Да
Forced                                   : Да

Текст #2
Идентификатор                            : 5
Формат                                   : UTF-8
Идентификатор кодека                     : S_TEXT/UTF8
Идентификатор кодека/Информация          : UTF-8 Plain Text
Продолжительность                        : 1 ч. 38 м.
Битрейт                                  : 93 бит/сек
ElementCount                             : 1356
Размер потока                            : 67,7 Кбайт (0%)
Заголовок                                : Rus Full
Язык                                     : Russian
Default                                  : Нет
Forced                                   : Нет

Текст #3
Идентификатор                            : 6
Формат                                   : UTF-8
Идентификатор кодека                     : S_TEXT/UTF8
Идентификатор кодека/Информация          : UTF-8 Plain Text
Продолжительность                        : 1 ч. 33 м.
Битрейт                                  : 70 бит/сек
ElementCount                             : 1553
Размер потока                            : 48,6 Кбайт (0%)
Заголовок                                : Eng Full
Язык                                     : English
Default                                  : Нет
Forced                                   : Нет

Меню
00:00:00.000                             : :Chapter 1
00:04:36.026                             : :Chapter 2
00:09:25.648                             : :Chapter 3
00:14:08.765                             : :Chapter 4
00:19:46.102                             : :Chapter 5
00:25:55.220                             : :Chapter 6
00:33:08.945                             : :Chapter 7
00:37:27.162                             : :Chapter 8
00:43:05.082                             : :Chapter 9
00:50:06.170                             : :Chapter 10
00:53:58.569                             : :Chapter 11
01:03:15.291                             : :Chapter 12
01:09:07.894                             : :Chapter 13
01:16:14.695                             : :Chapter 14
01:22:48.755                             : :Chapter 15
01:30:27.881                             : :Chapter 16



Скриншоты:
[+] Всего файлов в раздаче - 1:
Клаустрофобы (2019) BDRip 1080p [HEVC] 10 bit.mkv5.98 GB

Показать еще раздачи по запросу клаустрофобы:
2019-07-20 U Клаустрофобы / Escape Room (2019) BDRip 1080p от Талямбы | 60 fps | iTunes 12.27 GB ↑ 33 ↓ 23
2019-05-06 U Клаустрофобы / Escape Room (2019) BDRip 1080p от HELLYWOOD | Лицензия 1К6.93 GB ↑ 66 ↓ 51
2019-05-06 U Клаустрофобы / Escape Room (2019) BDRip-AVC от ExKinoRay | Лицензия 2.09 GB ↑ 64 ↓ 29
2019-05-06 U Клаустрофобы / Escape Room (2019) BDRip 1080p от селезень | Лицензия 8.67 GB ↑ 91 ↓ 78
2019-05-06 U Клаустрофобы / Escape Room (2019) BDRip от MegaPeer | Лицензия 1.46 GB ↑ 214 ↓ 67
2019-04-15 U Клаустрофобы / Escape Room (2019) HDRip от Scarabey | iTunes 1.40 GB ↑ 138 ↓ 35
2019-04-12 U Клаустрофобы / Escape Room (2019) BDRip 720p от селезень | iTunes 4.06 GB ↑ 232 ↓ 82

Отзывы
Зарегистрируйтесь чтобы добавить комментарий.
Обратная связь
Copyleft ©