↑↓Torrent.by
Поиск
Логин: Регистрация
Пароль: Восстановить пароль
Загрузка...

Как приручить дракона 3 / How to Train Your Dragon: The Hidden World (2019) BDRip-HEVC 1080p от HANNIBAL | iTunes

Скачать kak-priruchit-drakona-3-how-to-train-your-dragon-the-hidden-world-2019-bdrip-hevc-1080p-ot-hannibal-itunes.torrent
U Магнитная ссылка Размер: 6.35 GB Раздают: 129 Качают: 40 Добавлен: 2019-04-22 07:27:02
Как приручить дракона 3 / How to Train Your Dragon: The Hidden World (2019) BDRip-HEVC 1080p от HANNIBAL | iTunes

Название: Как приручить дракона 3
Оригинальное название: How to Train Your Dragon: The Hidden World
Год выхода: 2019
Жанр: Мультфильм, фэнтези, боевик, комедия, приключения, семейный, полнометражный
Режиссер: Дин ДеБлуа
В ролях: Кейт Бланшетт, Джерард Батлер, Джона Хилл, Кит Харингтон, Кристен Уиг, Джей Барушель, Кристофер Минц-Плассе, Америка Феррера, Оулавюр Дарри Оулафссон, Ф. Мюррэй Абрахам, Крэйг Фергюсон, Джастин Руппл

О фильме:
Когда-то викинги жили в гармонии с драконами. В те времена они делили радость, горе… и последние штаны. Казалось, что так будет всегда, но появление загадочной Дневной Фурии изменило жизнь острова. И теперь Иккинг и Беззубик столкнутся с безжалостным охотником на драконов, жаждущим уничтожить все, что им дорого.

Страна: США
Студия: DreamWorks Animation, Mad Hatter Entertainment
Продолжительность: 01:44:06
Перевод: Дублированный (iTunes)

Файл
Качество: BDRip-HEVC 1080p
Видео: HEVC/x.265, 1920x816, ~7903 Kbps
Аудио 1: AC3, 6 ch, 384 Kbps  Дублированный (iTunes)
Аудио 2: AC3, 6 ch, 448 Kbps  (Оригинал)

Релиз:
[+] Mediainfo

x265 info: frame I:   1486, Avg QP:13.55  kb/s: 24506.55
x265 info: frame P:  36520, Avg QP:15.17  kb/s: 13864.31
x265 info: frame B: 111750, Avg QP:17.37  kb/s: 5733.13
x265 info: Weighted P-Frames: Y:9.3% UV:7.3%
x265 info: Weighted B-Frames: Y:12.0% UV:8.5%
x265 info: consecutive B-frames: 10.8% 8.3% 10.7% 44.1% 9.1% 11.3% 2.2% 2.1% 1.4%

General
Unique ID                   : 188685543260031473238868655103139747821 (0x8DF3838754E5A2EDFD551ED69A9197ED)
Complete name               : H:HEVC-CLUBHow to Train Your Dragon The Hidden World (2019) BDRip 1080p [HEVC] 10bit.mkv
Format                      : Matroska
Format version              : Version 4
File size                   : 6.35 GiB
Duration                    : 1 h 44 min
Overall bit rate            : 8 738 kb/s
Movie name                  : How to Train Your Dragon: The Hidden World
Deion                 : When Hiccup discovers Toothless isn't the only Night Fury, he must seek "The Hidden World", a secret Dragon Utopia before a hired tyrant named Grimmel finds it first.
Encoded date                : UTC 2019-04-21 07:05:18
Writing application         : mkvmerge v25.0.0 ('Prog Noir') 64-bit
Writing library             : libebml v1.3.6 + libmatroska v1.4.9 / Lavf57.71.100
Cover                       : Yes
Attachments                 : cover.jpg / poster.jpg
ACTORS                      : Jay Baruchel, America Ferrera, F. Murray Abraham, Cate Blanchett
COUNTRY                     : USA
DATE                        : 2019
DIRECTOR                    : Dean DeBlois
ENCODING_INFO               : MATROSKA,WEBM > MKV / H264 > X265 CRF 17.5 Пользовательский 2
GENRE                       : Animation, Action, Adventure, Comedy, Family, Fantasy
HD_VIDEO                    : 1
IMDB_RATING                 : 7.9
ITUNEXTC                    : mpaa|PG|200|
Language                    : und
MEDIA_TYPE                  : 9
WRITER                      : Dean DeBlois, Cressida Cowell (based upon the "How to Train Your Dragon" book series by)

Video
ID                          : 1
Format                      : HEVC
Format/Info                 : High Efficiency Video Coding
Format profile              : Main 10@L4.1@High
Codec ID                    : V_MPEGH/ISO/HEVC
Duration                    : 1 h 44 min
Bit rate                    : 7 903 kb/s
Width                       : 1 920 pixels
Height                      : 816 pixels
Display aspect ratio        : 2.35:1
Frame rate mode             : Constant
Frame rate                  : 23.976 (24000/1001) FPS
Color space                 : YUV
Chroma subsampling          : 4:2:0
Bit depth                   : 10 bits
Bits/(Pixel*Frame)          : 0.210
Stream size                 : 5.75 GiB (90%)
Writing library             : x265 2.9+9-f74003e88622:[Windows][GCC 8.2.0][64 bit] 10bit
Encoding settings           : cpuid=1111039 / frame-threads=13 / numa-pools=12 / wpp / no-pmode / no-pme / no-psnr / no-ssim / log-level=3 / input-csp=1 / input-res=1920x816 / interlace=0 / total-frames=0 / level-idc=41 / high-tier=1 / uhd-bd=0 / ref=5 / allow-non-conformance / no-repeat-headers / annexb / no-aud / no-hrd / info / hash=0 / no-temporal-layers / open-gop / min-keyint=23 / keyint=240 / gop-lookahead=0 / bframes=8 / b-adapt=2 / b-pyramid / bframe-bias=0 / rc-lookahead=60 / lookahead-slices=4 / scenecut=40 / radl=0 / no-intra-refresh / ctu=64 / min-cu-size=8 / rect / amp / max-tu-size=32 / tu-inter-depth=4 / tu-intra-depth=4 / limit-tu=0 / rdoq-level=2 / dynamic-rd=0.00 / no-ssim-rd / signhide / no-tskip / nr-intra=0 / nr-inter=0 / no-constrained-intra / no-strong-intra-smoothing / max-merge=5 / limit-refs=2 / limit-modes / me=3 / subme=7 / merange=57 / temporal-mvp / weightp / weightb / no-analyze-src-pics / deblock=-3:-3 / no-sao / no-sao-non-deblock / rd=6 / no-early-skip / rskip / no-fast-intra / no-tskip-fast / no-cu-lossless / b-intra / no-splitrd-skip / rdpenalty=0 / psy-rd=2.00 / psy-rdoq=1.00 / no-rd-refine / no-lossless / cbqpoffs=0 / crqpoffs=0 / rc=crf / crf=17.5 / qcomp=0.70 / qpstep=4 / stats-write=0 / stats-read=0 / vbv-maxrate=50000 / vbv-bufsize=50000 / vbv-init=0.9 / crf-max=0.0 / crf-min=0.0 / ipratio=1.40 / pbratio=1.30 / aq-mode=2 / aq-strength=1.00 / no-cutree / zone-count=0 / no-strict-cbr / qg-size=32 / no-rc-grain / qpmax=69 / qpmin=0 / no-const-vbv / sar=1 / overscan=0 / videoformat=5 / range=0 / colorprim=1 / transfer=1 / colormatrix=1 / chromaloc=0 / display-window=0 / max-cll=0,0 / min-luma=0 / max-luma=1023 / log2-max-poc-lsb=8 / vui-timing-info / vui-hrd-info / slices=1 / no-opt-qp-pps / no-opt-ref-list-length-pps / no-multi-pass-opt-rps / scenecut-bias=0.05 / no-opt-cu-delta-qp / aq-motion / no-hdr / no-hdr-opt / no-dhdr10-opt / no-idr-recovery-sei / analysis-reuse-level=5 / scale-factor=0 / refine-intra=0 / refine-inter=0 / refine-mv=0 / no-limit-sao / ctu-info=0 / no-lowpass-dct / refine-mv-type=0 / copy-pic=1 / max-ausize-factor=1.0 / no-dynamic-refine / no-single-sei
Language                    : English
Default                     : Yes
Forced                      : No
Color range                 : Limited
Color primaries             : BT.709
Transfer characteristics    : BT.709
Matrix coefficients         : BT.709

Audio #1
ID                          : 2
Format                      : AC-3
Format/Info                 : Audio Coding 3
Commercial name             : Dolby Digital
Codec ID                    : A_AC3
Duration                    : 1 h 44 min
Bit rate mode               : Constant
Bit rate                    : 384 kb/s
Channel(s)                  : 6 channels
Channel layout              : L R C LFE Ls Rs
Sampling rate               : 48.0 kHz
Frame rate                  : 31.250 FPS (1536 SPF)
Bit depth                   : 16 bits
Compression mode            : Lossy
Stream size                 : 286 MiB (4%)
Title                       : Dub [iTunes]
Language                    : Russian
Service kind                : Complete Main
Default                     : Yes
Forced                      : Yes

Audio #2
ID                          : 3
Format                      : AC-3
Format/Info                 : Audio Coding 3
Commercial name             : Dolby Digital
Codec ID                    : A_AC3
Duration                    : 1 h 44 min
Bit rate mode               : Constant
Bit rate                    : 448 kb/s
Channel(s)                  : 6 channels
Channel layout              : L R C LFE Ls Rs
Sampling rate               : 48.0 kHz
Frame rate                  : 31.250 FPS (1536 SPF)
Bit depth                   : 16 bits
Compression mode            : Lossy
Stream size                 : 334 MiB (5%)
Title                       : Original
Language                    : English
Service kind                : Complete Main
Default                     : No
Forced                      : No

Menu
00:00:00.000                : :Chapter 1
00:05:13.521                : :Chapter 2
00:10:26.834                : :Chapter 3
00:14:52.224                : :Chapter 4
00:20:33.065                : :Chapter 5
00:24:38.685                : :Chapter 6
00:28:40.885                : :Chapter 7
00:31:10.118                : :Chapter 8
00:37:35.127                : :Chapter 9
00:44:38.550                : :Chapter 10
00:47:53.579                : :Chapter 11
00:53:11.021                : :Chapter 12
00:57:36.286                : :Chapter 13
01:01:25.056                : :Chapter 14
01:08:55.923                : :Chapter 15
01:14:17.703                : :Chapter 16
01:19:31.141                : :Chapter 17
01:23:23.289                : :Chapter 18
01:28:24.716                : :Chapter 19
01:33:53.377                : :Chapter 20



Скриншоты:
[+] Всего файлов в раздаче - 1:
How to Train Your Dragon The Hidden World (2019) BDRip 1080p [HEVC] 10bit.mkv6.35 GB

Показать еще раздачи по запросу приручить:
2019-04-23 U Как приручить дракона 3 / How to Train Your Dragon: The Hidden World (2019) HDRip от Scarabey | iTunes 1.40 GB ↑ 72 ↓ 14
2019-04-22 U Как приручить дракона 3 / How to Train Your Dragon: The Hidden World (2019) UHD BDRip-HEVC 2160p | 4K | HDR | D | iTunes 11.31 GB ↑ 53 ↓ 14
2019-04-20 U Как приручить дракона 3 / How to Train Your Dragon: The Hidden World (2019) BDRip от MegaPeer | iTunes 1.41 GB ↑ 96 ↓ 17
2019-04-19 U Как приручить дракона 3 / How to Train Your Dragon: The Hidden World (2019) BDRip-AVC от OlLanDGroup | D, P | iTunes 2.10 GB ↑ 128 ↓ 14
2019-04-19 U Как приручить дракона 3 / How to Train Your Dragon: The Hidden World (2019) BDRip-AVC от Dalemake | iTunes 1.45 GB ↑ 75 ↓ 12
2019-04-19 U Как приручить дракона 3 / How to Train Your Dragon: The Hidden World (2019) BDRip 1080p от Ash61 | 3D-Video | halfOU | iTunes 8.74 GB ↑ 65 ↓ 20
2019-04-19 U Как приручить дракона 3 / How to Train Your Dragon: The Hidden World (2019) UHD BDRemux 2160p от селезень | 4K | HDR | D, P | iTunes 57.98 GB ↑ 93 ↓ 51

Отзывы
Зарегистрируйтесь чтобы добавить комментарий.
Обратная связь
Copyleft ©