↑↓Torrent.by
Поиск
Логин: Регистрация
Пароль: Восстановить пароль
Загрузка...

Как приручить дракона 3 / How to Train Your Dragon: The Hidden World (2019) UHD BDRip-HEVC 2160p | 4K | HDR | D | iTunes

Скачать kak-priruchit-drakona-3-how-to-train-your-dragon-the-hidden-world-2019-uhd-bdrip-hevc-2160p-4k-hdr-d-itunes.torrent
U Магнитная ссылка Размер: 11.31 GB Раздают: 57 Качают: 14 Добавлен: 2019-04-22 07:27:51
Как приручить дракона 3 / How to Train Your Dragon: The Hidden World (2019) UHD BDRip-HEVC 2160p | 4K | HDR | D | iTunes

Название: Как приручить дракона 3
Оригинальное название: How to Train Your Dragon: The Hidden World
Год выхода: 2019
Жанр: Мультфильм, фэнтези, боевик, комедия, приключения, семейный
Режиссер: Дин ДеБлуа
В ролях: Джей Барушель, Кейт Бланшетт, Крэйг Фергюсон, Америка Феррера, Джона Хилл, Кит Харингтон, Джастин Руппл, Кристофер Минц-Плассе, Ф. Мюррэй Абрахам, Джерард Батлер

О фильме:
Когда-то викинги жили в гармонии с драконами. В те времена они делили радость, горе… и последние штаны. Казалось, что так будет всегда, но появление загадочной Дневной Фурии изменило жизнь острова. И теперь Иккинг и Беззубик столкнутся с безжалостным охотником на драконов, жаждущим уничтожить все, что им дорого.

Страна: США
Студия: DreamWorks Animation, Mad Hatter Entertainment
Продолжительность: 01:44:06
Перевод: Дублированный (iTunes)
Субтитры: Английские (SDH)

Релиз от: BlueBird
Качество: UHD BDRip 2160p (HDR)
Видео: H.265/HEVC, 3840x1636, (2.35:1), ~14.3 Mbps, 23.976 fps
Аудио 1: AC3, 6 ch, 384 kbps - Русский (iTunes)
Аудио 2: AC3, 2 ch, 192 kbps - Украинский (Студiя LeDoyen)
Аудио 3: AC3, 6 ch, 640 kbps - Английский (Оригинал)


[+] MediaInfo:
General
Unique ID                   : 95271312052575300323302075549534113029 (0x47AC96577A6BE2A1F7290AC976FBCD05)
Complete name               : S:HTTYD-3_2019_UHD-BDRip_HDR10_BT2020_x265_2160p.mkv
Format                      : Matroska
Format version              : Version 4
File size                   : 11.3 GiB
Duration                    : 1 h 44 min
Overall bit rate            : 15.6 Mb/s
Movie name                  : How to Train Your Dragon: The Hidden World (2019) UHD-BDRip HDR10 x265 2160p -BLUEBIRD
Encoded date                : UTC 2019-04-19 19:29:26
Writing application         : mkvmerge v33.1.0 ('Primrose') 64-bit
Writing library             : libebml v1.3.7 + libmatroska v1.5.0

Video
ID                          : 1
Format                      : HEVC
Format/Info                 : High Efficiency Video Coding
Commercial name             : HDR10
Format profile              : Main 10@L5.1@High
Codec ID                    : V_MPEGH/ISO/HEVC
Duration                    : 1 h 44 min
Bit rate                    : 14.3 Mb/s
Width                       : 3 840 pixels
Height                      : 1 636 pixels
Display aspect ratio        : 2.35:1
Frame rate mode             : Constant
Frame rate                  : 23.976 (24000/1001) FPS
Color space                 : YUV
Chroma subsampling          : 4:2:0 (Type 2)
Bit depth                   : 10 bits
Bits/(Pixel*Frame)          : 0.095
Stream size                 : 10.4 GiB (92%)
Title                       : HTTYD-3_2019_UHD-BDRip_HDR10_BT2020_x265_2160p -BLUEBIRD
Writing library             : x265 2.9+35-bad4e598cac7:[Windows][GCC 6.3.0][64 bit] 10bit
Encoding settings           : cpuid=1111039 / frame-threads=4 / numa-pools=12 / wpp / no-pmode / no-pme / no-psnr / no-ssim / log-level=2 / input-csp=1 / input-res=3840x1636 / interlace=0 / total-frames=149757 / level-idc=51 / high-tier=1 / uhd-bd=0 / ref=4 / no-allow-non-conformance / repeat-headers / annexb / no-aud / no-hrd / info / hash=0 / no-temporal-layers / no-open-gop / min-keyint=24 / keyint=250 / gop-lookahead=0 / bframes=7 / b-adapt=2 / b-pyramid / bframe-bias=0 / rc-lookahead=48 / lookahead-slices=4 / scenecut=40 / radl=0 / no-splice / no-intra-refresh / ctu=64 / min-cu-size=8 / rect / amp / max-tu-size=32 / tu-inter-depth=4 / tu-intra-depth=4 / limit-tu=0 / rdoq-level=2 / dynamic-rd=0.00 / no-ssim-rd / signhide / no-tskip / nr-intra=0 / nr-inter=0 / no-constrained-intra / strong-intra-smoothing / max-merge=5 / limit-refs=3 / no-limit-modes / me=4 / subme=7 / merange=57 / temporal-mvp / weightp / weightb / no-analyze-src-pics / deblock=-2:-2 / no-sao / no-sao-non-deblock / rd=4 / no-early-skip / no-rskip / no-fast-intra / no-tskip-fast / no-cu-lossless / b-intra / no-splitrd-skip / rdpenalty=0 / psy-rd=2.00 / psy-rdoq=1.35 / no-rd-refine / no-lossless / cbqpoffs=0 / crqpoffs=0 / rc=crf / crf=15.0 / qcomp=0.65 / qpstep=1 / stats-write=0 / stats-read=0 / vbv-maxrate=160000 / vbv-bufsize=160000 / vbv-init=0.9 / crf-max=0.0 / crf-min=0.0 / ipratio=1.35 / pbratio=1.23 / aq-mode=1 / aq-strength=1.00 / cutree / zone-count=8 / zones: / start-frame=0 / end-frame=7516 / bitrate-factor=1.100000 / zones: / start-frame=15029 / end-frame=19443 / bitrate-factor=1.070000 / zones: / start-frame=25628 / end-frame=29593 / bitrate-factor=1.070000 / zones: / start-frame=35453 / end-frame=44837 / bitrate-factor=1.080000 / zones: / start-frame=67916 / end-frame=68896 / bitrate-factor=1.060000 / zones: / start-frame=73356 / end-frame=85251 / bitrate-factor=1.070000 / zones: / start-frame=97042 / end-frame=98836 / bitrate-factor=1.040000 / zones: / start-frame=139604 / end-frame=149756 / bitrate-factor=0.500000 / no-strict-cbr / qg-size=32 / no-rc-grain / qpmax=69 / qpmin=0 / no-const-vbv / sar=1 / overscan=0 / videoformat=5 / range=0 / colorprim=9 / transfer=16 / colormatrix=9 / chromaloc=1 / chromaloc-top=2 / chromaloc-bottom=2 / display-window=0 / master-display=G(13250,34500)B(7500,3000)R(34000,16000)WP(15635,16450)L(10000000,50) / max-cll=845,196 / min-luma=0 / max-luma=1023 / log2-max-poc-lsb=8 / vui-timing-info / vui-hrd-info / slices=1 / no-opt-qp-pps / no-opt-ref-list-length-pps / no-multi-pass-opt-rps / scenecut-bias=0.05 / no-opt-cu-delta-qp / no-aq-motion / hdr / hdr-opt / no-dhdr10-opt / no-idr-recovery-sei / analysis-reuse-level=5 / scale-factor=0 / refine-intra=0 / refine-inter=0 / refine-mv=0 / refine-ctu-distortion=0 / no-limit-sao / ctu-info=0 / no-lowpass-dct / refine-analysis-type=0 / copy-pic=1 / max-ausize-factor=1.0 / no-dynamic-refine / no-single-sei / no-hevc-aq / qp-adaptation-range=1.00
Language                    : English
Default                     : Yes
Forced                      : No
Color range                 : Limited
Color primaries             : BT.2020
Transfer characteristics    : PQ
Matrix coefficients         : BT.2020 non-constant
Mastering display color pri : Display P3
Mastering display luminance : min: 0.0050 cd/m2, max: 1000 cd/m2
Maximum Content Light Level : 845 cd/m2
Maximum Frame-Average Light : 196 cd/m2

Audio #1
ID                          : 2
Format                      : AC-3
Format/Info                 : Audio Coding 3
Commercial name             : Dolby Digital
Codec ID                    : A_AC3
Duration                    : 1 h 44 min
Bit rate mode               : Constant
Bit rate                    : 384 kb/s
Channel(s)                  : 6 channels
Channel layout              : L R C LFE Ls Rs
Sampling rate               : 48.0 kHz
Frame rate                  : 31.250 FPS (1536 SPF)
Bit depth                   : 16 bits
Compression mode            : Lossy
Stream size                 : 286 MiB (2%)
Title                       : iTunes
Language                    : Russian
Service kind                : Complete Main
Default                     : Yes
Forced                      : No

Audio #2
ID                          : 3
Format                      : AC-3
Format/Info                 : Audio Coding 3
Commercial name             : Dolby Digital
Codec ID                    : A_AC3
Duration                    : 1 h 44 min
Bit rate mode               : Constant
Bit rate                    : 192 kb/s
Channel(s)                  : 2 channels
Channel layout              : L R
Sampling rate               : 48.0 kHz
Frame rate                  : 31.250 FPS (1536 SPF)
Bit depth                   : 16 bits
Compression mode            : Lossy
Stream size                 : 143 MiB (1%)
Title                       : студiя LeDoyen
Language                    : Ukrainian
Service kind                : Complete Main
Default                     : No
Forced                      : No

Audio #3
ID                          : 4
Format                      : AC-3
Format/Info                 : Audio Coding 3
Commercial name             : Dolby Digital
Codec ID                    : A_AC3
Duration                    : 1 h 44 min
Bit rate mode               : Constant
Bit rate                    : 640 kb/s
Channel(s)                  : 6 channels
Channel layout              : L R C LFE Ls Rs
Sampling rate               : 48.0 kHz
Frame rate                  : 31.250 FPS (1536 SPF)
Bit depth                   : 16 bits
Compression mode            : Lossy
Stream size                 : 477 MiB (4%)
Language                    : English
Service kind                : Complete Main
Default                     : No
Forced                      : No

Text
ID                          : 5
Format                      : UTF-8
Codec ID                    : S_TEXT/UTF8
Codec ID/Info               : UTF-8 Plain Text
Duration                    : 1 h 32 min
Bit rate                    : 60 b/s
Count of elements           : 1545
Stream size                 : 40.9 KiB (0%)
Title                       : SDH
Language                    : English
Default                     : No
Forced                      : No

Menu
00:00:00.000                : en:Chapter 01
00:05:13.521                : en:Chapter 02
00:10:26.834                : en:Chapter 03
00:14:52.224                : en:Chapter 04
00:20:33.065                : en:Chapter 05
00:24:38.685                : en:Chapter 06
00:28:40.885                : en:Chapter 07
00:31:10.118                : en:Chapter 08
00:37:35.127                : en:Chapter 09
00:44:38.550                : en:Chapter 10
00:47:53.579                : en:Chapter 11
00:53:11.021                : en:Chapter 12
00:57:36.286                : en:Chapter 13
01:01:25.056                : en:Chapter 14
01:08:55.923                : en:Chapter 15
01:14:17.703                : en:Chapter 16
01:19:31.141                : en:Chapter 17
01:23:23.289                : en:Chapter 18
01:28:24.716                : en:Chapter 19
01:33:53.377                : en:Chapter 20



[+] x265 log:
x265 [info]: frame I: 1360, Avg QP:12.86 kb/s: 40933.57
x265 [info]: frame P: 34681, Avg QP:15.15 kb/s: 28177.55
x265 [info]: frame B: 113716, Avg QP:18.50 kb/s: 9788.52
x265 [info]: consecutive B-frames: 11.8% 7.8% 8.9% 33.6% 16.8% 10.9% 4.3% 6.0%



Скриншоты:
[+] Всего файлов в раздаче - 1:
HTTYD-3_2019_UHD-BDRip_HDR10_BT2020_x265_2160p.mkv11.31 GB

Показать еще раздачи по запросу приручить:
2019-04-23 U Как приручить дракона 3 / How to Train Your Dragon: The Hidden World (2019) HDRip от Scarabey | iTunes 1.40 GB ↑ 72 ↓ 14
2019-04-22 U Как приручить дракона 3 / How to Train Your Dragon: The Hidden World (2019) BDRip-HEVC 1080p от HANNIBAL | iTunes 6.35 GB ↑ 141 ↓ 40
2019-04-20 U Как приручить дракона 3 / How to Train Your Dragon: The Hidden World (2019) BDRip от MegaPeer | iTunes 1.41 GB ↑ 97 ↓ 17
2019-04-19 U Как приручить дракона 3 / How to Train Your Dragon: The Hidden World (2019) BDRip-AVC от OlLanDGroup | D, P | iTunes 2.10 GB ↑ 128 ↓ 14
2019-04-19 U Как приручить дракона 3 / How to Train Your Dragon: The Hidden World (2019) BDRip-AVC от Dalemake | iTunes 1.45 GB ↑ 79 ↓ 12
2019-04-19 U Как приручить дракона 3 / How to Train Your Dragon: The Hidden World (2019) BDRip 1080p от Ash61 | 3D-Video | halfOU | iTunes 8.74 GB ↑ 66 ↓ 21
2019-04-19 U Как приручить дракона 3 / How to Train Your Dragon: The Hidden World (2019) UHD BDRemux 2160p от селезень | 4K | HDR | D, P | iTunes 57.98 GB ↑ 93 ↓ 52

Отзывы
Зарегистрируйтесь чтобы добавить комментарий.
Обратная связь
Copyleft ©