↑↓Torrent.by
Поиск
Логин: Регистрация
Пароль: Восстановить пароль
Загрузка...

ЛЕГО Фильм-2 / The Lego Movie 2: The Second Part (2019) BDRip 720p от селезень | iTunes

Скачать lego-film-2-the-movie-second-part-2019-bdrip-720p-ot-selezen-itunes.torrent
U Магнитная ссылка Размер: 4.78 GB Раздают: 176 Качают: 26 Добавлен: 2019-04-23 07:35:41
ЛЕГО Фильм-2 / The Lego Movie 2: The Second Part (2019) BDRip 720p от селезень | iTunes

Название: ЛЕГО Фильм-2
Оригинальное название: The Lego Movie 2: The Second Part
Год выхода: 2019
Жанр: Мультфильм, мюзикл, фэнтези, комедия, приключения, семейный, полнометражный
Режиссер: Майк Митчелл
В ролях: Крис Прэтт, Элизабет Бэнкс, Уилл Арнетт, Тиффани Хэддиш, Стефани Беатриз, Элисон Бри, Ник Офферман, Чарли Дэй, Майя Рудольф, Уилл Феррелл

О фильме: Прошло пять лет с тех пор, когда все было прекрасно, и теперь герои столкнулись с новой невероятной угрозой — захватчиками LEGO DUPLO®, прибывшими из космоса и разрушающими всё на своем пути куда быстрее, чем герои могут построить вновь. В борьбе за восстановление гармонии во вселенной ЛЕГО Эммет, Люся, Бэтмен и их верные друзья отправятся в далекие неизведанные миры, в том числе необыкновенную галактику, где всегда царит музыка. Героям предстоит доказать свою смелость, находчивость и мастерство, а также понять, что каждый из них — особенный.

Страна: Дания, Норвегия, Австралия, США
Студия: Warner Bros., Warner Animation Group, LEGO System A/S
Продолжительность: 01:47:09
Перевод: Дублированный | iTunes

Качество: BDRip 720p
Видео: MPEG-4 AVC, 1280x536, 5200 Кbit/s, 23.976 fps
Звук:
Аудио #01: 48 kHz, AC3, 5.1, 384 Kbps | iTunes | RUS |
Аудио #02: 48 kHz, AC3, 2.0, 160 Kbps | iTunes | UKR |
Аудио #03: 48 kHz, AC3, 5.1, 640 Kbps | Оригинал |  ENG |
Субтитры: Русские (Forced, full), украинские (Forced), английские

Релиз:


[+] MI
General
Unique ID                   : 133367527071505952662414038530807884636 (0x6455A6C21F9ACB8AAACC5FC710B8EB5C)
Complete name               : D:Video111The.Lego.Movie.2.The.Second.Part.2019.BDRip.720p.seleZen.mkv
Format                      : Matroska
Format version              : Version 4
File size                   : 4.78 GiB
Duration                    : 1 h 47 min
Overall bit rate            : 6 387 kb/s
Movie name                  : The Lego Movie 2 The Second Part 2019 from селезень
Encoded date                : UTC 2019-04-21 17:36:42
Writing application         : mkvmerge v32.0.0 ('Astral Progressions') 64-bit
Writing library             : libebml v1.3.7 + libmatroska v1.5.0

Video
ID                          : 1
Format                      : AVC
Format/Info                 : Advanced Video Codec
Format profile              : High@L4.1
Format settings             : CABAC / 12 Ref Frames
Format settings, CABAC      : Yes
Format settings, ReFrames   : 12 frames
Codec ID                    : V_MPEG4/ISO/AVC
Duration                    : 1 h 47 min
Bit rate                    : 5 200 kb/s
Width                       : 1 280 pixels
Height                      : 536 pixels
Display aspect ratio        : 2.40:1
Frame rate mode             : Constant
Frame rate                  : 23.976 (24000/1001) FPS
Color space                 : YUV
Chroma subsampling          : 4:2:0
Bit depth                   : 8 bits
Scan type                   : Progressive
Bits/(Pixel*Frame)          : 0.316
Stream size                 : 3.89 GiB (81%)
Title                       : HDC
Writing library             : x264 core 152 r2851kMod ba24899
Encoding settings           : cabac=1 / ref=12 / deblock=1:-1:-1 / analyse=0x3:0x133 / me=umh / subme=11 / psy=1 / fade_compensate=0.00 / psy_rd=0.80:0.00 / mixed_ref=1 / me_range=48 / chroma_me=1 / trellis=2 / 8x8dct=1 / cqm=0 / deadzone=21,11 / fast_pskip=0 / chroma_qp_offset=-2 / threads=12 / lookahead_threads=2 / sliced_threads=0 / nr=0 / decimate=0 / interlaced=0 / bluray_compat=0 / constrained_intra=0 / bframes=8 / b_pyramid=2 / b_adapt=2 / b_bias=0 / direct=3 / weightb=1 / open_gop=0 / weightp=2 / keyint=240 / keyint_min=2 / scenecut=40 / intra_refresh=0 / rc_lookahead=0 / rc=2pass / mbtree=0 / bitrate=5200 / ratetol=1.0 / qcomp=0.70 / qpmin=0 / qpmax=69 / qpstep=4 / cplxblur=20.0 / qblur=0.5 / vbv_maxrate=50000 / vbv_bufsize=30000 / nal_hrd=none / filler=0 / ip_ratio=1.30 / pb_ratio=1.20 / aq=3:1.10
Language                    : English
Default                     : Yes
Forced                      : No

Audio #1
ID                          : 2
Format                      : AC-3
Format/Info                 : Audio Coding 3
Commercial name             : Dolby Digital
Codec ID                    : A_AC3
Duration                    : 1 h 47 min
Bit rate mode               : Constant
Bit rate                    : 384 kb/s
Channel(s)                  : 6 channels
Channel layout              : L R C LFE Ls Rs
Sampling rate               : 48.0 kHz
Frame rate                  : 31.250 FPS (1536 SPF)
Bit depth                   : 16 bits
Compression mode            : Lossy
Stream size                 : 294 MiB (6%)
Title                       : iTunes
Language                    : Russian
Service kind                : Complete Main
Default                     : Yes
Forced                      : Yes

Audio #2
ID                          : 3
Format                      : AC-3
Format/Info                 : Audio Coding 3
Commercial name             : Dolby Digital
Codec ID                    : A_AC3
Duration                    : 1 h 47 min
Bit rate mode               : Constant
Bit rate                    : 160 kb/s
Channel(s)                  : 2 channels
Channel layout              : L R
Sampling rate               : 48.0 kHz
Frame rate                  : 31.250 FPS (1536 SPF)
Bit depth                   : 16 bits
Compression mode            : Lossy
Stream size                 : 123 MiB (3%)
Title                       : iTunes
Language                    : Ukrainian
Service kind                : Complete Main
Default                     : No
Forced                      : No

Audio #3
ID                          : 4
Format                      : AC-3
Format/Info                 : Audio Coding 3
Commercial name             : Dolby Digital
Codec ID                    : A_AC3
Duration                    : 1 h 47 min
Bit rate mode               : Constant
Bit rate                    : 640 kb/s
Channel(s)                  : 6 channels
Channel layout              : L R C LFE Ls Rs
Sampling rate               : 48.0 kHz
Frame rate                  : 31.250 FPS (1536 SPF)
Bit depth                   : 16 bits
Compression mode            : Lossy
Stream size                 : 491 MiB (10%)
Title                       : Original
Language                    : English
Service kind                : Complete Main
Default                     : No
Forced                      : No

Text #1
ID                          : 5
Format                      : UTF-8
Codec ID                    : S_TEXT/UTF8
Codec ID/Info               : UTF-8 Plain Text
Duration                    : 1 h 45 min
Bit rate                    : 5 b/s
Count of elements           : 41
Stream size                 : 3.90 KiB (0%)
Title                       : Forced
Language                    : Russian
Default                     : Yes
Forced                      : Yes

Text #2
ID                          : 6
Format                      : UTF-8
Codec ID                    : S_TEXT/UTF8
Codec ID/Info               : UTF-8 Plain Text
Duration                    : 1 h 46 min
Bit rate                    : 128 b/s
Count of elements           : 1905
Stream size                 : 100 KiB (0%)
Title                       : Full
Language                    : Russian
Default                     : No
Forced                      : No

Text #3
ID                          : 7
Format                      : UTF-8
Codec ID                    : S_TEXT/UTF8
Codec ID/Info               : UTF-8 Plain Text
Duration                    : 1 h 32 min
Bit rate                    : 5 b/s
Count of elements           : 40
Stream size                 : 3.73 KiB (0%)
Title                       : Forced
Language                    : Ukrainian
Default                     : No
Forced                      : No

Text #4
ID                          : 8
Format                      : UTF-8
Codec ID                    : S_TEXT/UTF8
Codec ID/Info               : UTF-8 Plain Text
Duration                    : 1 h 46 min
Bit rate                    : 90 b/s
Count of elements           : 2152
Stream size                 : 70.2 KiB (0%)
Title                       : Full
Language                    : English
Default                     : No
Forced                      : No

Menu
00:00:00.000                : en:1
00:04:14.000                : en:2
00:12:34.000                : en:3
00:15:08.000                : en:4
00:21:56.000                : en:5
00:29:49.000                : en:6
00:36:21.000                : en:7
00:44:46.000                : en:8
00:50:49.000                : en:9
00:57:04.000                : en:10
01:01:06.000                : en:11
01:09:47.000                : en:12
01:17:30.000                : en:13
01:21:57.000                : en:14
01:26:48.000                : en:15
01:34:00.000                : en:16
01:38:28.000                : en:17



Скриншоты:
[+] Всего файлов в раздаче - 1:
The.Lego.Movie.2.The.Second.Part.2019.BDRip.720p.seleZen.mkv4.78 GB

Показать еще раздачи по запросу лего:
2019-06-06 U ЛЕГО Фильм-2 / The Lego Movie 2: The Second Part (2019) HDRip от Scarabey | Лицензия 753.72 MB ↑ 32 ↓ 9
2019-06-05 U ЛЕГО Фильм-2 / The Lego Movie 2: The Second Part (2019) BDRip 720p | Лицензия 5.63 GB ↑ 67 ↓ 24
2019-06-05 U ЛЕГО Фильм-2 / The Lego Movie 2: The Second Part (2019) BDRip 1080p | Лицензия 10.27 GB ↑ 88 ↓ 17
2019-06-05 U ЛЕГО Фильм-2 / The Lego Movie 2: The Second Part (2019) HDRip от Scarabey | Лицензия 1.45 GB ↑ 167 ↓ 8
2019-06-04 U ЛЕГО Фильм-2 / The Lego Movie 2: The Second Part (2019) BDRip от MegaPeer | Лицензия 1.46 GB ↑ 505 ↓ 16
2019-06-02 U ЛЕГО Фильм-2 / The Lego Movie 2: The Second Part (2019) BDRip-AVC от OlLanDGroup | iTunes 1.63 GB ↑ 62 ↓ 11
2019-05-02 U ЛЕГО Фильм-2 / The Lego Movie 2: The Second Part (2019) BDRip от MegaPeer | iTunes 1.41 GB ↑ 209 ↓ 30

Отзывы
Зарегистрируйтесь чтобы добавить комментарий.
Обратная связь
Copyleft ©