↑↓torrent.by
Поиск
Логин: Регистрация
Пароль: Восстановить пароль

Агент времени / Shiguang Daili Ren / Link Click [S01 + Specials] (2021) WEBRip 1080p от FortunaTV | StudioBand

Скачать agent-vremeni-shiguang-daili-ren-link-click-s01-specials-2021-webrip-1080p-ot-fortunatv-studioband.torrent
U Магнитная ссылка Размер: 8.84 GB Раздают: 33 Качают: 16 Добавлен: 2021-09-05 16:38:36
Агент времени / Shiguang Daili Ren / Link Click [S01 + Specials] (2021) WEBRip 1080p от FortunaTV | StudioBand

Название: Агент времени
Английское название: LINK CLICK
Оригинальное название: Shiguang Daili Ren
Год выхода: 2021
Жанр: суперсила, драма, фэнтези, дунхуа
Режиссер: Ли Хаолин

О фильме:
В одном из уголков процветающей столицы всё ещё работает маленькое фотоателье под названием «Время». Пусть там немноголюдно, но им управляют два мужчины с необычными способностями — Чэн Сяоши и Лу Гуан. По просьбе одного из клиентов Лу Гуан и Чэн Сяоши при помощи суперспособностей попадают внутрь фотографии, но затем дела принимают совершенно неожиданный оборот... © Wakanim

Страна: Китай
Продолжительность: ~00:23:00 (серия)
Перевод: Профессиональный (многоголосый, закадровый) | StudioBand [Wakanim]

Файл
Формат: MKV
Кодек: MPEG-4 AVC
Качество: WEBRip 1080p
Видео: 1920x1080, ~ 4 100 kb/s, 23.976 FPS. 8 bits
Аудио (русский): AAC LC, ~ 128 kb/s, 2 channels, 48.0 kHz
Субтитры: русские (хардсаб).

Релиз от: FortunaTV

04.09.2021 обновлено. Добавлен второй Special. Релиз заменен на FortunaTV. Приятного просмотра.
[+] MediaInfo

General
Complete name : [FT] Shiguang Daili Ren - 01.mp4
Format : MPEG-4
Format profile : Base Media
Codec ID : isom (isom/iso2/avc1/mp41)
File size : 703 MiB
Duration : 23 min 9 s
Overall bit rate : 4 242 kb/s
Writing application : Lavf57.83.100

Video
ID : 1
Format : AVC
Format/Info : Advanced Video Codec
Format profile : High@L4
Format settings : CABAC / 4 Ref Frames
Format settings, CABAC : Yes
Format settings, Reference frames : 4 frames
Codec ID : avc1
Codec ID/Info : Advanced Video Coding
Duration : 23 min 9 s
Bit rate : 4 100 kb/s
Width : 1 920 pixels
Height : 1 080 pixels
Display aspect ratio : 16:9
Frame rate mode : Variable
Frame rate : 23.976 FPS
Minimum frame rate : 23.564 FPS
Maximum frame rate : 24.390 FPS
Color space : YUV
Chroma subsampling : 4:2:0
Bit depth : 8 bits
Scan type : Progressive
Bits/(Pixel*Frame) : 0.082
Stream size : 680 MiB (97%)
Writing library : x264 core 155
Encoding settings : cabac=1 / ref=3 / deblock=1:0:0 / analyse=0x3:0x113 / me=hex / subme=6 / psy=1 / psy_rd=1.00:0.00 / mixed_ref=0 / me_range=16 / chroma_me=1 / trellis=1 / 8x8dct=1 / cqm=0 / deadzone=21,11 / fast_pskip=1 / chroma_qp_offset=-2 / threads=24 / lookahead_threads=4 / sliced_threads=0 / nr=0 / decimate=1 / interlaced=0 / bluray_compat=0 / constrained_intra=0 / bframes=3 / b_pyramid=2 / b_adapt=1 / b_bias=0 / direct=1 / weightb=1 / open_gop=0 / weightp=2 / keyint=250 / keyint_min=23 / scenecut=0 / intra_refresh=0 / rc_lookahead=40 / rc=abr / mbtree=1 / bitrate=4100 / ratetol=1.0 / qcomp=0.60 / qpmin=0 / qpmax=69 / qpstep=4 / vbv_maxrate=4700 / vbv_bufsize=23500 / nal_hrd=none / filler=0 / ip_ratio=1.40 / aq=1:1.00
Codec configuration box : avcC

Audio
ID : 2
Format : AAC LC
Format/Info : Advanced Audio Codec Low Complexity
Codec ID : mp4a-40-2
Duration : 23 min 9 s
Bit rate mode : Constant
Bit rate : 128 kb/s
Channel(s) : 2 channels
Channel layout : L R
Sampling rate : 48.0 kHz
Frame rate : 46.875 FPS (1024 SPF)
Compression mode : Lossy
Stream size : 21.2 MiB (3%)
Default : Yes
Alternate group : 1



Скриншоты:
[+] Всего файлов в раздаче - 13:
[FT] Shiguang Daili Ren - 12 [Special].mp4463.48 MB
[FT] Shiguang Daili Ren - 03.mp4638.93 MB
[FT] Shiguang Daili Ren - 04.mp4650.00 MB
[FT] Shiguang Daili Ren - 09.mp4664.71 MB
[FT] Shiguang Daili Ren - 5.5 (Special).mp4665.56 MB
[FT] Shiguang Daili Ren - 10.mp4693.84 MB
[FT] Shiguang Daili Ren - 07.mp4701.95 MB
[FT] Shiguang Daili Ren - 01.mp4702.63 MB
[FT] Shiguang Daili Ren - 06.mp4711.44 MB
[FT] Shiguang Daili Ren - 02.mp4711.74 MB
[FT] Shiguang Daili Ren - 08.mp4722.99 MB
[FT] Shiguang Daili Ren - 05.mp4777.93 MB
[FT] Shiguang Daili Ren - 11.mp4942.30 MB

Похожие раздачи по запросу - агент:
2021-08-30 U Агент 117 / OSS 117: Le Caire, nid d'espions (2006) BDRip-HEVC 1080p от RIPS CLUB | D | GER Transfer 5.38 GB ↑ 28 ↓ 12
2021-08-22 U Агент Джонни Инглиш: Перезагрузка / Johnny English Reborn (2011) WEBRip-AVC от SuperMin | D | Open Matte | Локализованная версия 2.00 GB ↑ 7 ↓ 1

Отзывы
Зарегистрируйтесь чтобы добавить комментарий.
Загрузите программу
  byTorrent
Обратная связь
Copyleft ©