↑↓Torrent.by
Поиск
Логин: Регистрация
Пароль: Восстановить пароль
Загрузка...

Счастливого нового дня смерти / Happy Death Day 2U (2019) WEB-DL 1080p от селезень | iTunes

Скачать schastlivogo-novogo-dnya-smerti-happy-death-day-2u-2019-web-dl-1080p-ot-selezen-itunes.torrent
U Магнитная ссылка Размер: 3.70 GB Раздают: 338 Качают: 135 Добавлен: 2019-04-25 07:35:40
Счастливого нового дня смерти / Happy Death Day 2U (2019) WEB-DL 1080p от селезень | iTunes

Название: Счастливого нового дня смерти
Оригинальное название: Happy Death Day 2U
Год выхода: 2019
Жанр: Ужасы, триллер, детектив
Режиссер: Кристофер Лэндон
В ролях: Джессика Рот, Израэль Бруссар, Фи Ву, Сурадж Шарма, Сара Яркин, Рэйчел Мэттьюз, Руби Модин, Стив Зиссис, Чарльз Эйткин, Лаура Клифтон

О фильме: На прошлый день рождения судьба преподнесла ей сомнительный подарок — праздник повторялся снова и снова, а в финале её неизменно убивал маньяк в маске. То ли дело в этом году: какое счастье проснуться с утра пораньше и оказаться в той же самой петле времени! Только теперь с тобой умирают все твои друзья… Смертельная тоска? Нет, бесконечное веселье!

Страна: США
Студия: Blumhouse Productions, Digital Riot Media
Продолжительность: 01:39:56
Перевод: Дублированный | iTunes

Качество: WEB-DL 1080p
Видео: MPEG-4 AVC, 1920x800, 4535 Kbit/s, 23.976 fps
Звук:
Аудио #01: 48 kHz, AC3, 5.1, 384 Kbps | iTunes | RUS |
Аудио #02: 48 kHz, AC3, 5.1, 384 Kbps | Оригинал |  ENG |
Субтитры: Английские

Релиз:


[+] MI
General
Unique ID                   : 108077689657883832838270198558634869652 (0x514F0181903C5F75A7F4877BC6990394)
Complete name               : D:Video111Happy.Death.Day.2U.2019.WEB-DL.1080p.seleZen.mkv
Format                      : Matroska
Format version              : Version 4
File size                   : 3.70 GiB
Duration                    : 1 h 39 min
Overall bit rate            : 5 305 kb/s
Movie name                  : Happy Death Day 2U 2019 from селезень
Encoded date                : UTC 2019-04-25 01:07:25
Writing application         : mkvmerge v32.0.0 ('Astral Progressions') 64-bit
Writing library             : libebml v1.3.7 + libmatroska v1.5.0

Video
ID                          : 1
Format                      : AVC
Format/Info                 : Advanced Video Codec
Format profile              : High@L4
Format settings             : CABAC / 5 Ref Frames
Format settings, CABAC      : Yes
Format settings, ReFrames   : 5 frames
Codec ID                    : V_MPEG4/ISO/AVC
Duration                    : 1 h 39 min
Bit rate                    : 4 535 kb/s
Width                       : 1 920 pixels
Height                      : 800 pixels
Display aspect ratio        : 2.40:1
Frame rate mode             : Constant
Frame rate                  : 23.976 (24000/1001) FPS
Color space                 : YUV
Chroma subsampling          : 4:2:0
Bit depth                   : 8 bits
Scan type                   : Progressive
Bits/(Pixel*Frame)          : 0.123
Stream size                 : 3.17 GiB (85%)
Language                    : English
Default                     : Yes
Forced                      : No
Color range                 : Limited
Color primaries             : BT.709
Transfer characteristics    : BT.709
Matrix coefficients         : BT.709

Audio #1
ID                          : 2
Format                      : AC-3
Format/Info                 : Audio Coding 3
Commercial name             : Dolby Digital
Codec ID                    : A_AC3
Duration                    : 1 h 39 min
Bit rate mode               : Constant
Bit rate                    : 384 kb/s
Channel(s)                  : 6 channels
Channel layout              : L R C LFE Ls Rs
Sampling rate               : 48.0 kHz
Frame rate                  : 31.250 FPS (1536 SPF)
Bit depth                   : 16 bits
Compression mode            : Lossy
Stream size                 : 275 MiB (7%)
Title                       : iTunes
Language                    : Russian
Service kind                : Complete Main
Default                     : Yes
Forced                      : Yes

Audio #2
ID                          : 3
Format                      : AC-3
Format/Info                 : Audio Coding 3
Commercial name             : Dolby Digital
Codec ID                    : A_AC3
Duration                    : 1 h 39 min
Bit rate mode               : Constant
Bit rate                    : 384 kb/s
Channel(s)                  : 6 channels
Channel layout              : L R C LFE Ls Rs
Sampling rate               : 48.0 kHz
Frame rate                  : 31.250 FPS (1536 SPF)
Bit depth                   : 16 bits
Compression mode            : Lossy
Stream size                 : 275 MiB (7%)
Title                       : Original
Language                    : English
Service kind                : Complete Main
Default                     : No
Forced                      : No

Text
ID                          : 4
Format                      : UTF-8
Codec ID                    : S_TEXT/UTF8
Codec ID/Info               : UTF-8 Plain Text
Duration                    : 1 h 33 min
Bit rate                    : 63 b/s
Count of elements           : 1604
Stream size                 : 43.8 KiB (0%)
Title                       : Full
Language                    : English
Default                     : No
Forced                      : No

Menu
00:00:00.000                : en:1
00:07:43.254                : en:2
00:16:02.086                : en:3
00:21:17.067                : en:4
00:24:22.460                : en:5
00:28:45.890                : en:6
00:32:35.661                : en:7
00:37:16.817                : en:8
00:42:03.812                : en:9
00:45:36.107                : en:10
00:48:38.664                : en:11
00:54:28.347                : en:12
01:00:37.340                : en:13
01:06:25.312                : en:14
01:13:20.518                : en:15
01:17:48.077                : en:16
01:21:32.760                : en:17
01:27:37.082                : en:18
01:33:03.992                : en:19
01:35:06.698                : en:20



Скриншоты:
[+] Всего файлов в раздаче - 1:
Happy.Death.Day.2U.2019.WEB-DL.1080p.seleZen.mkv3.70 GB

Похожие раздачи по запросу - счастливого:
2019-06-15 U Счастливого нового дня смерти / Happy Death Day 2U (2019) BDRip 1080p от селезень | Лицензия 13.07 GB ↑ 66 ↓ 36
2019-05-11 U Счастливого нового дня смерти / Happy Death Day 2U (2019) BDRip-AVC от ExKinoRay | iTunes 2.67 GB ↑ 70 ↓ 13
2019-05-10 U Счастливого нового дня смерти / Happy Death Day 2U (2019) BDRip от MegaPeer | iTunes 1.42 GB ↑ 1271 ↓ 27
2019-05-07 U Счастливого нового дня смерти / Happy Death Day 2U (2019) HDRip от Scarabey | iTunes 1.40 GB ↑ 54 ↓ 3
2019-04-26 U Счастливого нового дня смерти / Happy Death Day 2U (2019) WEB-DLRip от Generalfilm | КПК | iTunes 379.54 MB ↑ 52 ↓ 8

Отзывы
Зарегистрируйтесь чтобы добавить комментарий.
Обратная связь
Copyleft ©