↑↓Torrent.by
Поиск
Логин: Регистрация
Пароль: Восстановить пароль
Загрузка...

Трезвый водитель (2018) WEB-DLRip от GeneralFilm | iTunes

Скачать trezvyy-voditel-2018-web-dlrip-ot-generalfilm-itunes.torrent
U Магнитная ссылка Размер: 745.87 MB Раздают: 175 Качают: 48 Добавлен: 2019-04-26 05:34:12
Трезвый водитель (2018) WEB-DLRip от GeneralFilm | iTunes

Оригинальное название: Любовницы
Год выпуска: 2018
Жанр:  Комедия, приключения
Выпущено: Россия, Кинокомпания «Небо», Yellow, Black & White
Режиссер: Резо Гигинеишвили
В ролях: Андрей Бурковский, Виктор Хориняк, Ирина Мартыненко, Янина Студилина

О фильме: Молодой наивный провинциал Артём приезжает к другу в Москву в надежде на новую красивую жизнь, но для начала вынужден помогать ему в нелёгком ночном труде «трезвого водителя». В первый же вечер, отвозя из ночного клуба красавицу Кристину, Артём по недоразумению оказывается вместе с ней в дорогом гостиничном номере. Совершенно не помня события прошлой ночи, Кристина принимает парня за молодого миллионера, а тот, в свою очередь, не спешит ее разочаровывать. С каждым свиданием Артём влюбляется все больше, но и выкручиваться из нелепых ситуаций становится всё сложнее.

Качество: WEB-DLRip
Видео: XviD build 73, 720x304 (2.37:1), 24.000 fps, 905 Kbps (0.172 bit/pixel)
Аудио: 48.0 kHz, MP3 2ch, 128 kbps
Продолжительность: 01:40:04
Перевод: Не требуется [Русский]
Cубтитры: нет

Релиз:


[+] MediaInfo
General
Complete name               : D:RazdachiTrezvyj.Voditelj.2019.WEB-DLRip.GeneralFilm.avi
Format                      : AVI
Format/Info                 : Audio Video Interleave
File size                   : 746 MiB
Duration                    : 1 h 40 min
Overall bit rate            : 1 042 kb/s
Writing application         : VirtualDubMod 1.5.10.3 | www.virtualdub-fr.org || (build 2550/release)
Writing library             : VirtualDubMod build 2550/release

Video
ID                          : 0
Format                      : MPEG-4 Visual
Format profile              : Advanced Simple@L5
Format settings             : BVOP1 / Custom Matrix
Format settings, BVOP       : 1
Format settings, QPel       : No
Format settings, GMC        : No warppoints
Format settings, Matrix     : Custom
Codec ID                    : XVID
Codec ID/Hint               : XviD
Duration                    : 1 h 40 min
Bit rate                    : 905 kb/s
Width                       : 720 pixels
Height                      : 304 pixels
Display aspect ratio        : 2.35:1
Frame rate                  : 24.000 FPS
Color space                 : YUV
Chroma subsampling          : 4:2:0
Bit depth                   : 8 bits
Scan type                   : Progressive
Compression mode            : Lossy
Bits/(Pixel*Frame)          : 0.172
Stream size                 : 648 MiB (87%)
Writing library             : XviD 73

Audio
ID                          : 1
Format                      : MPEG Audio
Format version              : Version 1
Format profile              : Layer 3
Codec ID                    : 55
Codec ID/Hint               : MP3
Duration                    : 1 h 40 min
Bit rate mode               : Constant
Bit rate                    : 128 kb/s
Channel(s)                  : 2 channels
Sampling rate               : 48.0 kHz
Frame rate                  : 41.667 FPS (1152 SPF)
Compression mode            : Lossy
Stream size                 : 91.6 MiB (12%)
Alignment                   : Aligned on interleaves
Interleave, duration        : 42  ms (1.00 video frame)
Interleave, preload duratio : 504  ms
Writing library             : LAME3.99r
Encoding settings           : -m s -V 4 -q 2 -lowpass 17 -b 128



Скриншоты:
[+] Всего файлов в раздаче - 1:
Trezvyj.Voditelj.2019.WEB-DLRip.GeneralFilm.avi745.87 MB

Похожие раздачи по запросу - трезвый:
2019-05-27 U Трезвый водитель (2018) WEB-DLRip-AVC от ExKinoRay | iTunes 746.36 MB ↑ 80 ↓ 17
2019-04-28 U Трезвый водитель (2018) WEB-DLRip от Scarabey | iTunes 1.45 GB ↑ 172 ↓ 49
2019-04-26 U Трезвый водитель (2018) WEB-DLRip-AVC от Files-х | iTunes 1.37 GB ↑ 344 ↓ 154
2019-04-26 U Трезвый водитель (2018) WEB-DLRip от MegaPeer | iTunes 1.46 GB ↑ 260 ↓ 126
2019-04-26 U Трезвый водитель (2018) WEB-DL 1080p | iTunes 3.46 GB ↑ 336 ↓ 130

Отзывы
Зарегистрируйтесь чтобы добавить комментарий.
Обратная связь
Copyleft ©