↑↓Torrent.by
Поиск
Логин: Регистрация
Пароль: Восстановить пароль
Загрузка...

Работа без авторства / Werk ohne Autor / Never Look Away (2018) BDRip 720p | HDRezka Studio

Скачать rabota-bez-avtorstva-werk-ohne-autor-never-look-away-2018-bdrip-720p-hdrezka-studio.torrent
U Магнитная ссылка Размер: 11.73 GB Раздают: 79 Качают: 17 Добавлен: 2019-04-27 05:35:22
Работа без авторства / Werk ohne Autor / Never Look Away (2018) BDRip 720p | HDRezka Studio

Название: Работа без авторства
Оригинальное название: Werk ohne Autor / Never Look Away
Год выпуска: 2018
Жанр:  Триллер, драма, история
Режиссер: Флориан Хенкель фон Доннерсмарк
В ролях: Том Шиллинг, Себастьян Кох, Паула Бир, Саския Розендаль, Оливер Мазуччи, Ина Вайсе, Евгений Сидихин, Марк Цак, Ульрике С. Чарре

О фильме: История великого немецкого художника Герхарда Рихтера, детство которого пришлось на нацистские годы, что повлияло не только на его жизнь, но и на его творчество. Молодой художник Курт Барнерт бежал в Западную Германию, но его продолжают мучить те переживания, которые он получил в детстве и юности в нацистские годы и во время режима ГДР. Когда он встречает студентку Элли, он убежден, что встретил любовь всей своей жизни и начинает создавать картины, отражающие не только его собственную судьбу, но и травмы целого поколения.

Страна: Германия, Италия
Студия: ARD Degeto Film GmbH
Продолжительность: 03:09:16
Перевод: Профессиональный (многоголосый, закадровый) | HDRezka Studio

Файл
Качество: BDRip 720p
Контейнер: MKV
Видео: MPEG-4 AVC, 1280x690, 7167 kb/s, 23.976 fps
Аудио 1: Русский: AC3, 2 ch, 192 Кбит/с - HDRezka Studio
Аудио 2: Немецкий: DTS, 6 ch, 1509 Кбит/с - Original
Субтитры: Русские, немецкие


[+] MediaInfo
General
Unique ID                                : 306093896262659667485284950788318408679 (0xE6478A416A09BB741FC5EBCF8283AFE7)
Complete name                            : G:Werk.ohne.Autor.a.k.a.Never.Look.Away.2018.BDRip.720p.mkv
Format                                   : Matroska
Format version                           : Version 4 / Version 2
File size                                : 11.7 GiB
Duration                                 : 3 h 9 min
Overall bit rate                         : 8 871 kb/s
Encoded date                             : UTC 2019-04-26 07:24:54
Writing application                      : mkvmerge v20.0.0 ('I Am The Sun') 64-bit
Writing library                          : libebml v1.3.5 + libmatroska v1.4.8

Video
ID                                       : 1
Format                                   : AVC
Format/Info                              : Advanced Video Codec
Format profile                           : High@L4.1
Format settings                          : CABAC / 9 Ref Frames
Format settings, CABAC                   : Yes
Format settings, RefFrames               : 9 frames
Codec ID                                 : V_MPEG4/ISO/AVC
Duration                                 : 3 h 9 min
Bit rate                                 : 7 167 kb/s
Width                                    : 1 280 pixels
Height                                   : 690 pixels
Display aspect ratio                     : 1.85:1
Frame rate mode                          : Constant
Frame rate                               : 23.976 (24000/1001) FPS
Color space                              : YUV
Chroma subsampling                       : 4:2:0
Bit depth                                : 8 bits
Scan type                                : Progressive
Bits/(Pixel*Frame)                       : 0.338
Stream size                              : 9.47 GiB (81%)
Writing library                          : x264 core 157 r2935 545de2f
Encoding settings                        : cabac=1 / ref=9 / deblock=1:-3:-3 / analyse=0x3:0x113 / me=umh / subme=10 / psy=1 / psy_rd=1.03:0.00 / mixed_ref=1 / me_range=32 / chroma_me=1 / trellis=2 / 8x8dct=1 / cqm=0 / deadzone=21,11 / fast_pskip=0 / chroma_qp_offset=-2 / threads=18 / lookahead_threads=3 / sliced_threads=0 / nr=0 / decimate=0 / interlaced=0 / bluray_compat=0 / constrained_intra=0 / bframes=8 / b_pyramid=2 / b_adapt=2 / b_bias=0 / direct=3 / weightb=1 / open_gop=0 / weightp=2 / keyint=240 / keyint_min=23 / scenecut=40 / intra_refresh=0 / rc_lookahead=60 / rc=crf / mbtree=0 / crf=16.4 / qcomp=0.65 / qpmin=0 / qpmax=69 / qpstep=4 / vbv_maxrate=62500 / vbv_bufsize=78125 / crf_max=0.0 / nal_hrd=none / filler=0 / ip_ratio=1.40 / pb_ratio=1.30 / aq=3:0.85
Language                                 : German
Default                                  : Yes
Forced                                   : No
Color range                              : Limited
Color primaries                          : BT.709
Transfer characteristics                 : BT.709
Matrix coefficients                      : BT.709

Audio #1
ID                                       : 2
Format                                   : AC-3
Format/Info                              : Audio Coding 3
Codec ID                                 : A_AC3
Duration                                 : 3 h 9 min
Bit rate mode                            : Constant
Bit rate                                 : 192 kb/s
Channel(s)                               : 2 channels
Channel positions                        : Front: L R
Sampling rate                            : 48.0 kHz
Frame rate                               : 31.250 FPS (1536 SPF)
Bit depth                                : 16 bits
Compression mode                         : Lossy
Stream size                              : 260 MiB (2%)
Title                                    : MVO, HDRezka Studio
Language                                 : Russian
Service kind                             : Complete Main
Default                                  : Yes
Forced                                   : No

Audio #2
ID                                       : 3
Format                                   : DTS
Format/Info                              : Digital Theater Systems
Codec ID                                 : A_DTS
Duration                                 : 3 h 9 min
Bit rate mode                            : Constant
Bit rate                                 : 1 509 kb/s
Channel(s)                               : 6 channels
Channel positions                        : Front: L C R, Side: L R, LFE
Sampling rate                            : 48.0 kHz
Frame rate                               : 93.750 FPS (512 SPF)
Bit depth                                : 24 bits
Compression mode                         : Lossy
Stream size                              : 1.99 GiB (17%)
Language                                 : German
Default                                  : No
Forced                                   : No

Text #1
ID                                       : 4
Format                                   : UTF-8
Codec ID                                 : S_TEXT/UTF8
Codec ID/Info                            : UTF-8 Plain Text
Duration                                 : 3 h 2 min
Bit rate                                 : 50 b/s
Count of elements                        : 1217
Stream size                              : 67.5 KiB (0%)
Language                                 : Russian
Default                                  : No
Forced                                   : No

Text #2
ID                                       : 5
Format                                   : UTF-8
Codec ID                                 : S_TEXT/UTF8
Codec ID/Info                            : UTF-8 Plain Text
Duration                                 : 3 h 8 min
Bit rate                                 : 38 b/s
Count of elements                        : 1475
Stream size                              : 53.1 KiB (0%)
Language                                 : German
Default                                  : No
Forced                                   : No

Menu
00:00:00.000                             : :Chapter 01
00:11:36.529                             : :Chapter 02
00:21:09.018                             : :Chapter 03
00:30:17.733                             : :Chapter 04
00:39:56.686                             : :Chapter 05
00:51:51.108                             : :Chapter 06
01:02:36.670                             : :Chapter 07
01:13:26.986                             : :Chapter 08
01:22:37.202                             : :Chapter 09
01:33:57.257                             : :Chapter 10
01:43:53.644                             : :Chapter 11
01:53:56.913                             : :Chapter 12
02:07:12.208                             : :Chapter 13
02:15:28.203                             : :Chapter 14
02:25:53.536                             : :Chapter 15
02:37:21.474                             : :Chapter 16
02:47:18.445                             : :Chapter 17
03:02:27.436                             : :Chapter 18



Скриншоты:
[+] Всего файлов в раздаче - 1:
Werk.ohne.Autor.a.k.a.Never.Look.Away.2018.BDRip.720p.mkv11.73 GB

Показать еще раздачи по запросу работа:
2019-04-26 U Работа без авторства / Werk ohne Autor / Never Look Away (2018) BDRip от MegaPeer | HDRezka Studio 1.47 GB ↑ 137 ↓ 45
2019-04-26 U Работа без авторства / Werk ohne Autor / Never Look Away (2018) BDRip от MegaPeer | HDRezka Studio 2.92 GB ↑ 207 ↓ 84
2017-11-15 U Секс - моя работа (2015) WEBRip 720p | P 303.15 MB ↑ 224 ↓ 49
2017-09-08 U Секс-салон 2 / Секс-санаторий 2: Телесная работа / The Sex Spa II: Body Work (2005) DVDRip | P2 1.40 GB ↑ 526 ↓ 117
2017-04-09 U Нагиев: это моя работа (2017) HDTVRip от R.G.Resident 550.27 MB ↑ 108 ↓ 7
2016-10-28 U Работа против ударов с дальней и ближней дистанции. Мастер-класс (2011) DVDRip 804.42 MB ↑ 303 ↓ 24
2016-03-04 U Такая работа [S02] (2015) WEB-DLRip от Files-x 15.27 GB ↑ 7 ↓ 82

Отзывы
Зарегистрируйтесь чтобы добавить комментарий.
Обратная связь
Copyleft ©