↑↓Torrent.by
Поиск
Логин: Регистрация
Пароль: Восстановить пароль
Загрузка...

Адская ночь / Hell of a Night (2019) WEB-DL 1080p от ExKinoRay | HDRezka Studio

Скачать adskaya-noch-hell-of-a-night-2019-web-dl-1080p-ot-exkinoray-hdrezka-studio.torrent
U Магнитная ссылка Размер: 3.01 GB Раздают: 345 Качают: 151 Добавлен: 2019-04-28 14:01:48
Адская ночь / Hell of a Night (2019) WEB-DL 1080p от ExKinoRay | HDRezka Studio

Название: Адская ночь
Оригинальное название: Hell of a Night
Год выпуска: 2019
Жанр:  Ужасы, триллер
Режиссер: Брайан Чайлдс
В ролях: Рэйчел Хеврин, Грэйс Пауэлл, Элла Тейлор, Кристин МакКензи, Джордайн Виссер, Дебора Кей Хукер, Кайли Кинг, Тори Карю, Алисса Копли, Роберт Хукер

Описание:   В центре истории находится Блейк — студентка колледжа, опечаленная трагической смертью отца. Пытаясь справиться с потерей близкого человека, она арендует маленький дом, находящийся вдали от города, чтобы провести несколько дней в одиночестве. Но случайно найденная доска Уиджа, используемая для спиритических сеансов, кардинальным образом меняет все планы девушки. И теперь ей предстоит бороться за свою жизнь, сражаясь не только с призванными призраками, но и Хлоей — близкой подругой, которая решила предать Блейк.

Выпущено: США, Javelina 98 Productions
Продолжительность: 01:24:18
Перевод: Профессиональный (многоголосый, закадровый) | HDRezka Studio
Субтитры: Английские

БЕЗ КАКОЙ-ЛИБО РЕКЛАМЫ!

Формат: MKV
Качество: WEB-DL 1080p
Видео: MPEG-4 AVC, 1920x792 (2.35:1), 24.000 fps, 4433 Kbps, 0.121 bit/pixel
Аудио 1: 48 kHz, AC3, 2.0, 192 Kbps | MVO | RUS |
Аудио 2: 48 kHz, AC3, 2.0, 384 Kbps | Оригинал |  ENG |

Релиз:

Автор релиза:


[+] ОтчетМедиаИнфо
General
Unique ID                                : 250182985162521413840793259840641779194 (0xBC377D8256D77F449DBEBE88694945FA)
Complete name                            : F:Hell.Of.A.Night.2019.MVO.1080p.WEB-DL.ExKinoRay.mkv
Format                                   : Matroska
Format version                           : Version 2
File size                                : 3.01 GiB
Duration                                 : 1 h 24 min
Overall bit rate                         : 5 110 kb/s
Movie name                               : Hell Of A Night 2019 from ExKinoray
Encoded date                             : UTC 2019-04-28 01:05:20
Writing application                      : mkvmerge v5.6.0 ('Kenya Kane') built on May 27 2012 16:44:04
Writing library                          : libebml v1.2.3 + libmatroska v1.3.0

Video
ID                                       : 1
Format                                   : AVC
Format/Info                              : Advanced Video Codec
Format profile                           : High@L4
Format settings, CABAC                   : Yes
Format settings, ReFrames                : 5 frames
Codec ID                                 : V_MPEG4/ISO/AVC
Duration                                 : 1 h 24 min
Bit rate                                 : 4 433 kb/s
Width                                    : 1 920 pixels
Height                                   : 792 pixels
Display aspect ratio                     : 2.40:1
Frame rate mode                          : Constant
Frame rate                               : 24.000 FPS
Color space                              : YUV
Chroma subsampling                       : 4:2:0
Bit depth                                : 8 bits
Scan type                                : Progressive
Bits/(Pixel*Frame)                       : 0.121
Stream size                              : 2.61 GiB (87%)
Title                                    : Hell.Of.A.Night.2019.1080p
Language                                 : English
Default                                  : Yes
Forced                                   : No
Color range                              : Limited
Color primaries                          : BT.709
Transfer characteristics                 : BT.709
Matrix coefficients                      : BT.709

Audio #1
ID                                       : 2
Format                                   : AC-3
Format/Info                              : Audio Coding 3
Mode extension                           : CM (complete main)
Format settings, Endianness              : Big
Codec ID                                 : A_AC3
Duration                                 : 1 h 24 min
Bit rate mode                            : Constant
Bit rate                                 : 192 kb/s
Channel(s)                               : 2 channels
Channel positions                        : Front: L R
Sampling rate                            : 48.0 kHz
Frame rate                               : 31.250 FPS (1536 spf)
Compression mode                         : Lossy
Stream size                              : 116 MiB (4%)
Title                                    : MVO (HDrezka Studio)
Language                                 : Russian
Default                                  : Yes
Forced                                   : No

Audio #2
ID                                       : 3
Format                                   : AC-3
Format/Info                              : Audio Coding 3
Mode extension                           : CM (complete main)
Format settings, Endianness              : Big
Codec ID                                 : A_AC3
Duration                                 : 1 h 24 min
Bit rate mode                            : Constant
Bit rate                                 : 384 kb/s
Channel(s)                               : 2 channels
Channel positions                        : Front: L R
Sampling rate                            : 48.0 kHz
Frame rate                               : 31.250 FPS (1536 spf)
Compression mode                         : Lossy
Stream size                              : 232 MiB (8%)
Title                                    : Original
Language                                 : English
Default                                  : No
Forced                                   : No

Text
ID                                       : 4
Format                                   : UTF-8
Codec ID                                 : S_TEXT/UTF8
Codec ID/Info                            : UTF-8 Plain Text
Language                                 : English
Default                                  : No
Forced                                   : No

Menu
00:00:00.000                             : en:1
00:06:17.000                             : en:2
00:18:18.000                             : en:3
00:27:56.000                             : en:4
00:36:43.000                             : en:5
00:46:23.000                             : en:6
00:59:49.000                             : en:7
01:08:31.000                             : en:8
01:20:04.000                             : en:9




Скриншоты:
[+] Всего файлов в раздаче - 1:
Hell.Of.A.Night.2019.MVO.1080p.WEB-DL.ExKinoRay.mkv3.01 GB

Похожие раздачи по запросу - адская:
2019-04-29 U Адская ночь / Hell of a Night (2019) WEB-DLRip | HDRezka Studio 1.46 GB ↑ 97 ↓ 19
2018-06-05 U Адская дыра / Hellhole (1985) HDRip | Sub 1.43 GB ↑ 114 ↓ 31
2017-11-20 U Следствие вели... с Леонидом Каневским. Адская бочка [эфир от 19.11] (2017) WEBRip 531.52 MB ↑ 82 ↓ 30
2017-11-19 U Следствие вели... с Леонидом Каневским. Адская бочка [эфир от 19.11] (2017) WEBRip 1080p от MediaClub 1.79 GB ↑ 150 ↓ 26

Отзывы
Зарегистрируйтесь чтобы добавить комментарий.
Обратная связь
Copyleft ©