↑↓Torrent.by
Поиск
Логин: Регистрация
Пароль: Восстановить пароль
Загрузка...

Водяная (2018) WEB-DL 1080p | iTunes

Скачать vodyanaya-2018-web-dl-1080p-itunes.torrent
U Магнитная ссылка Размер: 2.83 GB Раздают: 246 Качают: 70 Добавлен: 2019-04-29 07:38:06
Водяная (2018) WEB-DL 1080p | iTunes

Название: Водяная
Год выхода: 2018
Жанр:  Фэнтези, Детский
Режиссер: Алексей Барыкин
Актеры: Николай Невзоров, Екатерина Барыкина, Нафиса Хайруллина, Ильдус Габдрахманов, Гузель Шакирзянова, Фанис Зиганшин, Юлия Захарова

Описание:
Двое детей, брат и сестра, приезжают в гости к родственникам в отдаленную деревню. Темной ночью их мать похищает Водяная — страшная ведьма, которая живет в озере.

Производство: Россия, Кинокомпания Алексея Барыкина
Продолжительность: 01:25:25
Перевод: Не требуется  | iTunes
Субтитры: Отсутствуют

Файл
Формат: Matroska
Качество видео: WEB-DL 1080p
Видео: AVC/H.264, 1920x804, 4 555 Kbps, 24.000 fps
Аудио: AC3, 2 ch, 192 Kbps

Релиз:


[+] M/I
General
Unique ID                   : 81686024070878700325080625535340808760 (0x3D7427EE4782CE8231290A1727448A38)
Complete name               : Vodyanaya.O.2018.WEB-DL.1080p.mkv
Format                      : Matroska
Format version              : Version 4
File size                   : 2.83 GiB
Duration                    : 1 h 25 min
Overall bit rate            : 4 749 kb/s
Movie name                  : Водяная (2018)
Encoded date                : UTC 2019-04-28 08:25:56
Writing application         : mkvmerge v32.0.0 ('Astral Progressions') 64-bit
Writing library             : libebml v1.3.7 + libmatroska v1.5.0

Video
ID                          : 1
Format                      : AVC
Format/Info                 : Advanced Video Codec
Format profile              : High@L4
Format settings             : CABAC / 5 Ref Frames
Format settings, CABAC      : Yes
Format settings, ReFrames   : 5 frames
Codec ID                    : V_MPEG4/ISO/AVC
Duration                    : 1 h 25 min
Bit rate                    : 4 555 kb/s
Width                       : 1 920 pixels
Height                      : 804 pixels
Display aspect ratio        : 2.40:1
Frame rate mode             : Constant
Frame rate                  : 24.000 FPS
Color space                 : YUV
Chroma subsampling          : 4:2:0
Bit depth                   : 8 bits
Scan type                   : Progressive
Bits/(Pixel*Frame)          : 0.123
Stream size                 : 2.72 GiB (96%)
Language                    : English
Default                     : Yes
Forced                      : No
Color range                 : Limited
Color primaries             : BT.709
Transfer characteristics    : BT.709
Matrix coefficients         : BT.709

Audio
ID                          : 2
Format                      : AC-3
Format/Info                 : Audio Coding 3
Commercial name             : Dolby Digital
Codec ID                    : A_AC3
Duration                    : 1 h 25 min
Bit rate mode               : Constant
Bit rate                    : 192 kb/s
Channel(s)                  : 2 channels
Channel layout              : L R
Sampling rate               : 48.0 kHz
Frame rate                  : 31.250 FPS (1536 SPF)
Bit depth                   : 16 bits
Compression mode            : Lossy
Stream size                 : 117 MiB (4%)
Title                       : iTunes
Language                    : Russian
Service kind                : Complete Main
Default                     : Yes
Forced                      : No

Menu
00:00:00.000                : en:Глава 1
00:04:25.750                : en:Глава 2
00:11:29.125                : en:Глава 3
00:18:24.458                : en:Глава 4
00:25:38.998                : en:Глава 5
00:32:55.788                : en:Глава 6
00:39:58.996                : en:Глава 7
00:44:59.412                : en:Глава 8
00:50:23.537                : en:Глава 9
00:54:51.078                : en:Глава 10
01:00:46.494                : en:Глава 11
01:07:30.035                : en:Глава 12
01:13:59.493                : en:Глава 13



Скриншоты:
[+] Всего файлов в раздаче - 1:
Vodyanaya.O.2018.WEB-DL.1080p.mkv2.83 GB

Отзывы
Зарегистрируйтесь чтобы добавить комментарий.
Обратная связь
Copyleft ©