↑↓Torrent.by
Поиск
Логин: Регистрация
Пароль: Восстановить пароль
Загрузка...

Гости (2018) WEB-DL 1080p | iTunes

Скачать gosti-2018-web-dl-1080p-itunes.torrent
U Магнитная ссылка Размер: 2.91 GB Раздают: 206 Качают: 140 Добавлен: 2019-04-29 07:38:17
Гости (2018) WEB-DL 1080p | iTunes

Название: Гости
Год выхода: 2018
Жанр:  Ужасы, триллер
Режиссер: Евгений Абызов
В ролях: Юрий Чурсин, Ангелина Стречина, Михаил Мещеряков, Анастасия Уколова, Анар Халилов, Евгений Егоров, Марина Панферова, Иван Верховых, Мария Лисовая

О фильме: Юная Катя знакомится с веселой компанией приезжих ребят, у которых есть специфическое развлечение — устраивать вечеринки в чужих пустующих домах. И Катя знает подходящее место: старинная дача на побережье, хозяин которой давно уехал. Уединенно расположенный дом, в котором в начале прошлого века был спиритический салон, кажется всем отличным вариантом. В разгар вечеринки появляется тот, кого Катя никак не ожидала увидеть: таинственный хозяин дома… Человек, которого она любила. Человек, находящийся во власти потусторонних сил.

Выпущено: Россия, Enjoy Movies
Продолжительность: 01:23:56
Язык: Русский | iTunes

Файл
Качество: WEB-DL 1080p
Контейнер: MKV
Видео: MPEG-4 AVC, 1920x806, 4484 Kb/s
Аудио: Russian: AC3, 6 ch, 384 Kb/s
Субтитры: Нет


[+] MediaInfo
General
Unique ID                                : 185277861834917124780566920179985948503 (0x8B6337DCDF41F9B2916268F907401F57)
Complete name                            : Гости.2018.WEB-DL.1080p.mkv
Format                                   : Matroska
Format version                           : Version 2
File size                                : 2.91 GiB
Duration                                 : 1 h 23 min
Overall bit rate                         : 4 967 kb/s
Encoded date                             : UTC 2019-04-28 18:55:22
Writing application                      : mkvmerge v5.8.0 ('No Sleep / Pillow') built on Sep  2 2012 15:37:04
Writing library                          : libebml v1.2.3 + libmatroska v1.3.0

Video
ID                                       : 1
Format                                   : AVC
Format/Info                              : Advanced Video Codec
Format profile                           : High@L4
Format settings, CABAC                   : Yes
Format settings, RefFrames               : 5 frames
Codec ID                                 : V_MPEG4/ISO/AVC
Duration                                 : 1 h 23 min
Bit rate                                 : 4 484 kb/s
Width                                    : 1 920 pixels
Height                                   : 806 pixels
Display aspect ratio                     : 2.40:1
Frame rate mode                          : Constant
Frame rate                               : 25.000 FPS
Color space                              : YUV
Chroma subsampling                       : 4:2:0
Bit depth                                : 8 bits
Scan type                                : Progressive
Bits/(Pixel*Frame)                       : 0.116
Stream size                              : 2.63 GiB (90%)
Title                                    : Гости.2018.WEB-DL.1080p
Language                                 : English
Default                                  : Yes
Forced                                   : No
Color range                              : Limited
Color primaries                          : BT.709
Transfer characteristics                 : BT.709
Matrix coefficients                      : BT.709

Audio
ID                                       : 2
Format                                   : AC-3
Format/Info                              : Audio Coding 3
Format settings, Endianness              : Big
Codec ID                                 : A_AC3
Duration                                 : 1 h 23 min
Bit rate mode                            : Constant
Bit rate                                 : 384 kb/s
Channel(s)                               : 6 channels
Channel positions                        : Front: L C R, Side: L R, LFE
Sampling rate                            : 48.0 kHz
Frame rate                               : 31.250 FPS (1536 SPF)
Bit depth                                : 16 bits
Compression mode                         : Lossy
Stream size                              : 231 MiB (8%)
Title                                    : iTunes
Language                                 : Russian
Service kind                             : Complete Main
Default                                  : Yes
Forced                                   : No

Menu
00:00:00.000                             : en:Глава 1
00:06:44.960                             : en:Глава 2
00:11:11.760                             : en:Глава 3
00:16:33.960                             : en:Глава 4
00:21:20.880                             : en:Глава 5
00:27:15.800                             : en:Глава 6
00:33:29.080                             : en:Глава 7
00:39:42.720                             : en:Глава 8
00:46:35.440                             : en:Глава 9
00:52:30.559                             : en:Глава 10
00:59:13.718                             : en:Глава 11
01:05:46.877                             : en:Глава 12
01:13:08.357                             : en:Глава 13



Скриншоты:
[+] Всего файлов в раздаче - 1:
Гости.2018.WEB-DL.1080p.mkv2.91 GB

Показать еще раздачи по запросу гости:
2019-05-01 U Гости (2018) WEB-DLRip от Portablius | iTunes 744.79 MB ↑ 55 ↓ 18
2019-04-30 U Гости (2018) WEB-DLRip-AVC | iTunes 742.72 MB ↑ 104 ↓ 30
2018-01-28 U К 80-летию Владимира Высоцкого. В гости к Богу не бывает опозданий (2018) HDTV 1080i от NNMClub 4.32 GB ↑ 44 ↓ 26
2018-01-27 U В гости к Богу не бывает опозданий. К 80-летию В.С. Высоцкого (2018) WEBRip от Files-х 734.12 MB ↑ 79 ↓ 25
2018-01-27 U В гости к Богу не бывает опозданий. К 80-летию В.С. Высоцкого (2018) WEBRip 720p от Files-х 659.83 MB ↑ 83 ↓ 34
2017-11-04 U Зоряна Ивченко - Когда гости на пороге (2017) FB2 12.69 MB ↑ 305 ↓ 15
2016-07-16 U Незваные гости / Shut In (2015) BDRip от ExKinoRay | Rus Transfer | iTunes 1.42 GB ↑ 71 ↓ 62

Отзывы
Зарегистрируйтесь чтобы добавить комментарий.
Обратная связь
Copyleft ©