↑↓Torrent.by
Поиск
Логин: Регистрация
Пароль: Восстановить пароль
Загрузка...

Адская ночь / Hell of a Night (2019) WEB-DLRip | HDRezka Studio

Скачать adskaya-noch-hell-of-a-night-2019-web-dlrip-hdrezka-studio.torrent
U Магнитная ссылка Размер: 1.46 GB Раздают: 97 Качают: 19 Добавлен: 2019-04-29 07:38:40
Адская ночь / Hell of a Night (2019) WEB-DLRip | HDRezka Studio

Название: Адская ночь
Оригинальное название: Hell of a Night
Год выпуска: 2019
Жанр:  Ужасы, триллер
Режиссер: Брайан Чайлдс
В ролях: Рэйчел Хеврин, Грэйс Пауэлл, Элла Тейлор, Кристин МакКензи, Джордайн Виссер, Дебора Кей Хукер, Кайли Кинг, Тори Карю, Алисса Копли, Роберт Хукер

Описание: В центре истории находится Блейк — студентка колледжа, опечаленная трагической смертью отца. Пытаясь справиться с потерей близкого человека, она арендует маленький дом, находящийся вдали от города, чтобы провести несколько дней в одиночестве. Но случайно найденная доска Уиджа, используемая для спиритических сеансов, кардинальным образом меняет все планы девушки. И теперь ей предстоит бороться за свою жизнь, сражаясь не только с призванными призраками, но и Хлоей — близкой подругой, которая решила предать Блейк.

Выпущено: США, Javelina 98 Productions
Продолжительность: 01:24:18
Перевод: Профессиональный (многоголосый, закадровый) | HDRezka Studio

Файл
Качество: WEB-DLRip
Формат: AVI
Видео: 704x288 (2.44:1), 24.000 fps, XviD build 73 ~2272 kbps avg, 0.47 bit/pixel
Аудио: 48 kHz, AC3 Dolby Digital, 2/0 (L,R) ch, ~192 kbps
Субтитры: Нет

Релиз от: порошков


[+] MediaInfo
Формат                                   : AVI
Формат/Информация                        : Audio Video Interleave
Размер файла                             : 1,46 Гбайт
Продолжительность                        : 1 ч. 24 м.
Общий поток                              : 2473 Кбит/сек
Программа кодирования                    : VirtualDubMod 1.5.10.3
Библиотека кодирования                   : VirtualDubMod build 2550/release

Видео
Идентификатор                            : 0
Формат                                   : MPEG-4 Visual
Профиль формата                          : Advanced Simple@L5
Настройки формата                        : BVOP1 / Custom Matrix
Параметр BVOP формата                    : 1
Параметр QPel формата                    : Нет
Параметр GMC формата                     : Без точки перехода
Параметр матрицы формата                 : Выборочная
Идентификатор кодека                     : XVID
Идентификатор кодека/Подсказка           : XviD
Продолжительность                        : 1 ч. 24 м.
Битрейт                                  : 2272 Кбит/сек
Ширина                                   : 704 пикселя
Высота                                   : 288 пикселей
Соотношение сторон                       : 2,40:1
Частота кадров                           : 24,000 кадра/сек
Цветовое пространство                    : YUV
Субдискретизация насыщенности            : 4:2:0
Битовая глубина                          : 8 бит
Тип развёртки                            : Прогрессивная
Метод сжатия                             : С потерями
Бит/(Пиксели*Кадры)                      : 0.467
Размер потока                            : 1,34 Гбайт (92%)
Библиотека кодирования                   : XviD 73

Аудио
Идентификатор                            : 1
Формат                                   : AC-3
Формат/Информация                        : Audio Coding 3
Коммерческое название                    : Dolby Digital
Идентификатор кодека                     : 2000
Продолжительность                        : 1 ч. 24 м.
Вид битрейта                             : Постоянный
Битрейт                                  : 192 Кбит/сек
Каналы                                   : 2 канала
ChannelLayout                            : L R
Частота                                  : 48,0 КГц
Частота кадров                           : 31,250 кадров/сек (1536 SPF)
Битовая глубина                          : 16 бит
Метод сжатия                             : С потерями
Размер потока                            : 116 Мбайт (8%)
Выравнивание                             : Разделение по промежуткам
Продолжительность промежутка             : 42  мс. (1,00 видеокадр)
Время предзагрузки промежутка            : 500  мс.



Скриншоты:
[+] Всего файлов в раздаче - 1:
Адская ночь_2019_WEB-DLRip.avi1.46 GB

Похожие раздачи по запросу - адская:
2019-04-28 U Адская ночь / Hell of a Night (2019) WEB-DL 1080p от ExKinoRay | HDRezka Studio 3.01 GB ↑ 345 ↓ 151
2018-06-05 U Адская дыра / Hellhole (1985) HDRip | Sub 1.43 GB ↑ 114 ↓ 31
2017-11-20 U Следствие вели... с Леонидом Каневским. Адская бочка [эфир от 19.11] (2017) WEBRip 531.52 MB ↑ 82 ↓ 30
2017-11-19 U Следствие вели... с Леонидом Каневским. Адская бочка [эфир от 19.11] (2017) WEBRip 1080p от MediaClub 1.79 GB ↑ 150 ↓ 26

Отзывы
Зарегистрируйтесь чтобы добавить комментарий.
Обратная связь
Copyleft ©